<?xml version="1.0" standalone="no"?>
<!DOCTYPE svg PUBLIC "-//W3C//DTD SVG 1.1//EN" "http://www.w3.org/Graphics/SVG/1.1/DTD/svg11.dtd" >
<svg xmlns="http://www.w3.org/2000/svg">
<metadata></metadata>
<defs>
<font id="fontawesomeregular" horiz-adv-x="1536" >
<font-face units-per-em="1792" ascent="1536" descent="-256" />
<missing-glyph horiz-adv-x="448" />
<glyph unicode=" "  horiz-adv-x="448" />
<glyph unicode="&#x09;" horiz-adv-x="448" />
<glyph unicode="&#xa0;" horiz-adv-x="448" />
<glyph unicode="&#xa8;" horiz-adv-x="1792" />
<glyph unicode="&#xa9;" horiz-adv-x="1792" />
<glyph unicode="&#xae;" horiz-adv-x="1792" />
<glyph unicode="&#xb4;" horiz-adv-x="1792" />
<glyph unicode="&#xc6;" horiz-adv-x="1792" />
<glyph unicode="&#xd8;" horiz-adv-x="1792" />
<glyph unicode="&#x2000;" horiz-adv-x="768" />
<glyph unicode="&#x2001;" horiz-adv-x="1537" />
<glyph unicode="&#x2002;" horiz-adv-x="768" />
<glyph unicode="&#x2003;" horiz-adv-x="1537" />
<glyph unicode="&#x2004;" horiz-adv-x="512" />
<glyph unicode="&#x2005;" horiz-adv-x="384" />
<glyph unicode="&#x2006;" horiz-adv-x="256" />
<glyph unicode="&#x2007;" horiz-adv-x="256" />
<glyph unicode="&#x2008;" horiz-adv-x="192" />
<glyph unicode="&#x2009;" horiz-adv-x="307" />
<glyph unicode="&#x200a;" horiz-adv-x="85" />
<glyph unicode="&#x202f;" horiz-adv-x="307" />
<glyph unicode="&#x205f;" horiz-adv-x="384" />
<glyph unicode="&#x2122;" horiz-adv-x="1792" />
<glyph unicode="&#x221e;" horiz-adv-x="1792" />
<glyph unicode="&#x2260;" horiz-adv-x="1792" />
<glyph unicode="&#x25fc;" horiz-adv-x="500" d="M0 0z" />
<glyph unicode="&#xf000;" horiz-adv-x="1792" d="M1699 1350q0 -35 -43 -78l-632 -632v-768h320q26 0 45 -19t19 -45t-19 -45t-45 -19h-896q-26 0 -45 19t-19 45t19 45t45 19h320v768l-632 632q-43 43 -43 78q0 23 18 36.5t38 17.5t43 4h1408q23 0 43 -4t38 -17.5t18 -36.5z" />
<glyph unicode="&#xf001;" d="M1536 1312v-1120q0 -50 -34 -89t-86 -60.5t-103.5 -32t-96.5 -10.5t-96.5 10.5t-103.5 32t-86 60.5t-34 89t34 89t86 60.5t103.5 32t96.5 10.5q105 0 192 -39v537l-768 -237v-709q0 -50 -34 -89t-86 -60.5t-103.5 -32t-96.5 -10.5t-96.5 10.5t-103.5 32t-86 60.5t-34 89 t34 89t86 60.5t103.5 32t96.5 10.5q105 0 192 -39v967q0 31 19 56.5t49 35.5l832 256q12 4 28 4q40 0 68 -28t28 -68z" />
<glyph unicode="&#xf002;" horiz-adv-x="1664" d="M1152 704q0 185 -131.5 316.5t-316.5 131.5t-316.5 -131.5t-131.5 -316.5t131.5 -316.5t316.5 -131.5t316.5 131.5t131.5 316.5zM1664 -128q0 -52 -38 -90t-90 -38q-54 0 -90 38l-343 342q-179 -124 -399 -124q-143 0 -273.5 55.5t-225 150t-150 225t-55.5 273.5 t55.5 273.5t150 225t225 150t273.5 55.5t273.5 -55.5t225 -150t150 -225t55.5 -273.5q0 -220 -124 -399l343 -343q37 -37 37 -90z" />
<glyph unicode="&#xf003;" horiz-adv-x="1792" d="M1664 32v768q-32 -36 -69 -66q-268 -206 -426 -338q-51 -43 -83 -67t-86.5 -48.5t-102.5 -24.5h-1h-1q-48 0 -102.5 24.5t-86.5 48.5t-83 67q-158 132 -426 338q-37 30 -69 66v-768q0 -13 9.5 -22.5t22.5 -9.5h1472q13 0 22.5 9.5t9.5 22.5zM1664 1083v11v13.5t-0.5 13 t-3 12.5t-5.5 9t-9 7.5t-14 2.5h-1472q-13 0 -22.5 -9.5t-9.5 -22.5q0 -168 147 -284q193 -152 401 -317q6 -5 35 -29.5t46 -37.5t44.5 -31.5t50.5 -27.5t43 -9h1h1q20 0 43 9t50.5 27.5t44.5 31.5t46 37.5t35 29.5q208 165 401 317q54 43 100.5 115.5t46.5 131.5z M1792 1120v-1088q0 -66 -47 -113t-113 -47h-1472q-66 0 -113 47t-47 113v1088q0 66 47 113t113 47h1472q66 0 113 -47t47 -113z" />
<glyph unicode="&#xf004;" horiz-adv-x="1792" d="M896 -128q-26 0 -44 18l-624 602q-10 8 -27.5 26t-55.5 65.5t-68 97.5t-53.5 121t-23.5 138q0 220 127 344t351 124q62 0 126.5 -21.5t120 -58t95.5 -68.5t76 -68q36 36 76 68t95.5 68.5t120 58t126.5 21.5q224 0 351 -124t127 -344q0 -221 -229 -450l-623 -600 q-18 -18 -44 -18z" />
<glyph unicode="&#xf005;" horiz-adv-x="1664" d="M1664 889q0 -22 -26 -48l-363 -354l86 -500q1 -7 1 -20q0 -21 -10.5 -35.5t-30.5 -14.5q-19 0 -40 12l-449 236l-449 -236q-22 -12 -40 -12q-21 0 -31.5 14.5t-10.5 35.5q0 6 2 20l86 500l-364 354q-25 27 -25 48q0 37 56 46l502 73l225 455q19 41 49 41t49 -41l225 -455 l502 -73q56 -9 56 -46z" />
<glyph unicode="&#xf006;" horiz-adv-x="1664" d="M1137 532l306 297l-422 62l-189 382l-189 -382l-422 -62l306 -297l-73 -421l378 199l377 -199zM1664 889q0 -22 -26 -48l-363 -354l86 -500q1 -7 1 -20q0 -50 -41 -50q-19 0 -40 12l-449 236l-449 -236q-22 -12 -40 -12q-21 0 -31.5 14.5t-10.5 35.5q0 6 2 20l86 500 l-364 354q-25 27 -25 48q0 37 56 46l502 73l225 455q19 41 49 41t49 -41l225 -455l502 -73q56 -9 56 -46z" />
<glyph unicode="&#xf007;" horiz-adv-x="1408" d="M1408 131q0 -120 -73 -189.5t-194 -69.5h-874q-121 0 -194 69.5t-73 189.5q0 53 3.5 103.5t14 109t26.5 108.5t43 97.5t62 81t85.5 53.5t111.5 20q9 0 42 -21.5t74.5 -48t108 -48t133.5 -21.5t133.5 21.5t108 48t74.5 48t42 21.5q61 0 111.5 -20t85.5 -53.5t62 -81 t43 -97.5t26.5 -108.5t14 -109t3.5 -103.5zM1088 1024q0 -159 -112.5 -271.5t-271.5 -112.5t-271.5 112.5t-112.5 271.5t112.5 271.5t271.5 112.5t271.5 -112.5t112.5 -271.5z" />
<glyph unicode="&#xf046;" horiz-adv-x="1664" d="M1408 606v-318q0 -119 -84.5 -203.5t-203.5 -84.5h-832q-119 0 -203.5 84.5t-84.5 203.5v832q0 119 84.5 203.5t203.5 84.5h832q63 0 117 -25q15 -7 18 -23q3 -17 -9 -29l-49 -49q-10 -10 -23 -10q-3 0 -9 2q-23 6 -45 6h-832q-66 0 -113 -47t-47 -113v-832 q0 -66 47 -113t113 -47h832q66 0 113 47t47 113v254q0 13 9 22l64 64q10 10 23 10q6 0 12 -3q20 -8 20 -29zM1639 1095l-814 -814q-24 -24 -57 -24t-57 24l-430 430q-24 24 -24 57t24 57l110 110q24 24 57 24t57 -24l263 -263l647 647q24 24 57 24t57 -24l110 -110 q24 -24 24 -57t-24 -57z" />
<glyph unicode="&#xf047;" horiz-adv-x="1792" d="M1792 640q0 -26 -19 -45l-256 -256q-19 -19 -45 -19t-45 19t-19 45v128h-384v-384h128q26 0 45 -19t19 -45t-19 -45l-256 -256q-19 -19 -45 -19t-45 19l-256 256q-19 19 -19 45t19 45t45 19h128v384h-384v-128q0 -26 -19 -45t-45 -19t-45 19l-256 256q-19 19 -19 45 t19 45l256 256q19 19 45 19t45 -19t19 -45v-128h384v384h-128q-26 0 -45 19t-19 45t19 45l256 256q19 19 45 19t45 -19l256 -256q19 -19 19 -45t-19 -45t-45 -19h-128v-384h384v128q0 26 19 45t45 19t45 -19l256 -256q19 -19 19 -45z" />
<glyph unicode="&#xf048;" horiz-adv-x="1024" d="M979 1395q19 19 32 13t13 -32v-1472q0 -26 -13 -32t-32 13l-710 710q-9 9 -13 19v-678q0 -26 -19 -45t-45 -19h-128q-26 0 -45 19t-19 45v1408q0 26 19 45t45 19h128q26 0 45 -19t19 -45v-678q4 11 13 19z" />
<glyph unicode="&#xf049;" horiz-adv-x="1792" d="M1747 1395q19 19 32 13t13 -32v-1472q0 -26 -13 -32t-32 13l-710 710q-9 9 -13 19v-710q0 -26 -13 -32t-32 13l-710 710q-9 9 -13 19v-678q0 -26 -19 -45t-45 -19h-128q-26 0 -45 19t-19 45v1408q0 26 19 45t45 19h128q26 0 45 -19t19 -45v-678q4 11 13 19l710 710 q19 19 32 13t13 -32v-710q4 11 13 19z" />
<glyph unicode="&#xf04a;" horiz-adv-x="1664" d="M1619 1395q19 19 32 13t13 -32v-1472q0 -26 -13 -32t-32 13l-710 710q-8 9 -13 19v-710q0 -26 -13 -32t-32 13l-710 710q-19 19 -19 45t19 45l710 710q19 19 32 13t13 -32v-710q5 11 13 19z" />
<glyph unicode="&#xf04b;" horiz-adv-x="1408" d="M1384 609l-1328 -738q-23 -13 -39.5 -3t-16.5 36v1472q0 26 16.5 36t39.5 -3l1328 -738q23 -13 23 -31t-23 -31z" />
<glyph unicode="&#xf04c;" d="M1536 1344v-1408q0 -26 -19 -45t-45 -19h-512q-26 0 -45 19t-19 45v1408q0 26 19 45t45 19h512q26 0 45 -19t19 -45zM640 1344v-1408q0 -26 -19 -45t-45 -19h-512q-26 0 -45 19t-19 45v1408q0 26 19 45t45 19h512q26 0 45 -19t19 -45z" />
<glyph unicode="&#xf04d;" d="M1536 1344v-1408q0 -26 -19 -45t-45 -19h-1408q-26 0 -45 19t-19 45v1408q0 26 19 45t45 19h1408q26 0 45 -19t19 -45z" />
<glyph unicode="&#xf04e;" horiz-adv-x="1664" d="M45 -115q-19 -19 -32 -13t-13 32v1472q0 26 13 32t32 -13l710 -710q8 -8 13 -19v710q0 26 13 32t32 -13l710 -710q19 -19 19 -45t-19 -45l-710 -710q-19 -19 -32 -13t-13 32v710q-5 -10 -13 -19z" />
<glyph unicode="&#xf050;" horiz-adv-x="1792" d="M45 -115q-19 -19 -32 -13t-13 32v1472q0 26 13 32t32 -13l710 -710q8 -8 13 -19v710q0 26 13 32t32 -13l710 -710q8 -8 13 -19v678q0 26 19 45t45 19h128q26 0 45 -19t19 -45v-1408q0 -26 -19 -45t-45 -19h-128q-26 0 -45 19t-19 45v678q-5 -10 -13 -19l-710 -710 q-19 -19 -32 -13t-13 32v710q-5 -10 -13 -19z" />
<glyph unicode="&#xf051;" horiz-adv-x="1024" d="M45 -115q-19 -19 -32 -13t-13 32v1472q0 26 13 32t32 -13l710 -710q8 -8 13 -19v678q0 26 19 45t45 19h128q26 0 45 -19t19 -45v-1408q0 -26 -19 -45t-45 -19h-128q-26 0 -45 19t-19 45v678q-5 -10 -13 -19z" />
<glyph unicode="&#xf052;" horiz-adv-x="1538" d="M14 557l710 710q19 19 45 19t45 -19l710 -710q19 -19 13 -32t-32 -13h-1472q-26 0 -32 13t13 32zM1473 0h-1408q-26 0 -45 19t-19 45v256q0 26 19 45t45 19h1408q26 0 45 -19t19 -45v-256q0 -26 -19 -45t-45 -19z" />
<glyph unicode="&#xf053;" horiz-adv-x="1280" d="M1171 1235l-531 -531l531 -531q19 -19 19 -45t-19 -45l-166 -166q-19 -19 -45 -19t-45 19l-742 742q-19 19 -19 45t19 45l742 742q19 19 45 19t45 -19l166 -166q19 -19 19 -45t-19 -45z" />
<glyph unicode="&#xf054;" horiz-adv-x="1280" d="M1107 659l-742 -742q-19 -19 -45 -19t-45 19l-166 166q-19 19 -19 45t19 45l531 531l-531 531q-19 19 -19 45t19 45l166 166q19 19 45 19t45 -19l742 -742q19 -19 19 -45t-19 -45z" />
<glyph unicode="&#xf055;" d="M1216 576v128q0 26 -19 45t-45 19h-256v256q0 26 -19 45t-45 19h-128q-26 0 -45 -19t-19 -45v-256h-256q-26 0 -45 -19t-19 -45v-128q0 -26 19 -45t45 -19h256v-256q0 -26 19 -45t45 -19h128q26 0 45 19t19 45v256h256q26 0 45 19t19 45zM1536 640q0 -209 -103 -385.5 t-279.5 -279.5t-385.5 -103t-385.5 103t-279.5 279.5t-103 385.5t103 385.5t279.5 279.5t385.5 103t385.5 -103t279.5 -279.5t103 -385.5z" />
<glyph unicode="&#xf056;" d="M1216 576v128q0 26 -19 45t-45 19h-768q-26 0 -45 -19t-19 -45v-128q0 -26 19 -45t45 -19h768q26 0 45 19t19 45zM1536 640q0 -209 -103 -385.5t-279.5 -279.5t-385.5 -103t-385.5 103t-279.5 279.5t-103 385.5t103 385.5t279.5 279.5t385.5 103t385.5 -103t279.5 -279.5 t103 -385.5z" />
<glyph unicode="&#xf057;" d="M1149 414q0 26 -19 45l-181 181l181 181q19 19 19 45q0 27 -19 46l-90 90q-19 19 -46 19q-26 0 -45 -19l-181 -181l-181 181q-19 19 -45 19q-27 0 -46 -19l-90 -90q-19 -19 -19 -46q0 -26 19 -45l181 -181l-181 -181q-19 -19 -19 -45q0 -27 19 -46l90 -90q19 -19 46 -19 q26 0 45 19l181 181l181 -181q19 -19 45 -19q27 0 46 19l90 90q19 19 19 46zM1536 640q0 -209 -103 -385.5t-279.5 -279.5t-385.5 -103t-385.5 103t-279.5 279.5t-103 385.5t103 385.5t279.5 279.5t385.5 103t385.5 -103t279.5 -279.5t103 -385.5z" />
<glyph unicode="&#xf058;" d="M1284 802q0 28 -18 46l-91 90q-19 19 -45 19t-45 -19l-408 -407l-226 226q-19 19 -45 19t-45 -19l-91 -90q-18 -18 -18 -46q0 -27 18 -45l362 -362q19 -19 45 -19q27 0 46 19l543 543q18 18 18 45zM1536 640q0 -209 -103 -385.5t-279.5 -279.5t-385.5 -103t-385.5 103 t-279.5 279.5t-103 385.5t103 385.5t279.5 279.5t385.5 103t385.5 -103t279.5 -279.5t103 -385.5z" />
<glyph unicode="&#xf059;" d="M896 160v192q0 14 -9 23t-23 9h-192q-14 0 -23 -9t-9 -23v-192q0 -14 9 -23t23 -9h192q14 0 23 9t9 23zM1152 832q0 88 -55.5 163t-138.5 116t-170 41q-243 0 -371 -213q-15 -24 8 -42l132 -100q7 -6 19 -6q16 0 25 12q53 68 86 92q34 24 86 24q48 0 85.5 -26t37.5 -59 q0 -38 -20 -61t-68 -45q-63 -28 -115.5 -86.5t-52.5 -125.5v-36q0 -14 9 -23t23 -9h192q14 0 23 9t9 23q0 19 21.5 49.5t54.5 49.5q32 18 49 28.5t46 35t44.5 48t28 60.5t12.5 81zM1536 640q0 -209 -103 -385.5t-279.5 -279.5t-385.5 -103t-385.5 103t-279.5 279.5 t-103 385.5t103 385.5t279.5 279.5t385.5 103t385.5 -103t279.5 -279.5t103 -385.5z" />
<glyph unicode="&#xf05a;" d="M1024 160v160q0 14 -9 23t-23 9h-96v512q0 14 -9 23t-23 9h-320q-14 0 -23 -9t-9 -23v-160q0 -14 9 -23t23 -9h96v-320h-96q-14 0 -23 -9t-9 -23v-160q0 -14 9 -23t23 -9h448q14 0 23 9t9 23zM896 1056v160q0 14 -9 23t-23 9h-192q-14 0 -23 -9t-9 -23v-160q0 -14 9 -23 t23 -9h192q14 0 23 9t9 23zM1536 640q0 -209 -103 -385.5t-279.5 -279.5t-385.5 -103t-385.5 103t-279.5 279.5t-103 385.5t103 385.5t279.5 279.5t385.5 103t385.5 -103t279.5 -279.5t103 -385.5z" />
<glyph unicode="&#xf05b;" d="M1197 512h-109q-26 0 -45 19t-19 45v128q0 26 19 45t45 19h109q-32 108 -112.5 188.5t-188.5 112.5v-109q0 -26 -19 -45t-45 -19h-128q-26 0 -45 19t-19 45v109q-108 -32 -188.5 -112.5t-112.5 -188.5h109q26 0 45 -19t19 -45v-128q0 -26 -19 -45t-45 -19h-109 q32 -108 112.5 -188.5t188.5 -112.5v109q0 26 19 45t45 19h128q26 0 45 -19t19 -45v-109q108 32 188.5 112.5t112.5 188.5zM1536 704v-128q0 -26 -19 -45t-45 -19h-143q-37 -161 -154.5 -278.5t-278.5 -154.5v-143q0 -26 -19 -45t-45 -19h-128q-26 0 -45 19t-19 45v143 q-161 37 -278.5 154.5t-154.5 278.5h-143q-26 0 -45 19t-19 45v128q0 26 19 45t45 19h143q37 161 154.5 278.5t278.5 154.5v143q0 26 19 45t45 19h128q26 0 45 -19t19 -45v-143q161 -37 278.5 -154.5t154.5 -278.5h143q26 0 45 -19t19 -45z" />
<glyph unicode="&#xf05c;" d="M1097 457l-146 -146q-10 -10 -23 -10t-23 10l-137 137l-137 -137q-10 -10 -23 -10t-23 10l-146 146q-10 10 -10 23t10 23l137 137l-137 137q-10 10 -10 23t10 23l146 146q10 10 23 10t23 -10l137 -137l137 137q10 10 23 10t23 -10l146 -146q10 -10 10 -23t-10 -23 l-137 -137l137 -137q10 -10 10 -23t-10 -23zM1312 640q0 148 -73 273t-198 198t-273 73t-273 -73t-198 -198t-73 -273t73 -273t198 -198t273 -73t273 73t198 198t73 273zM1536 640q0 -209 -103 -385.5t-279.5 -279.5t-385.5 -103t-385.5 103t-279.5 279.5t-103 385.5 t103 385.5t279.5 279.5t385.5 103t385.5 -103t279.5 -279.5t103 -385.5z" />
<glyph unicode="&#xf05d;" d="M1171 723l-422 -422q-19 -19 -45 -19t-45 19l-294 294q-19 19 -19 45t19 45l102 102q19 19 45 19t45 -19l147 -147l275 275q19 19 45 19t45 -19l102 -102q19 -19 19 -45t-19 -45zM1312 640q0 148 -73 273t-198 198t-273 73t-273 -73t-198 -198t-73 -273t73 -273t198 -198 t273 -73t273 73t198 198t73 273zM1536 640q0 -209 -103 -385.5t-279.5 -279.5t-385.5 -103t-385.5 103t-279.5 279.5t-103 385.5t103 385.5t279.5 279.5t385.5 103t385.5 -103t279.5 -279.5t103 -385.5z" />
<glyph unicode="&#xf0d4;" d="M917 631q0 26 -6 64h-362v-132h217q-3 -24 -16.5 -50t-37.5 -53t-66.5 -44.5t-96.5 -17.5q-99 0 -169 71t-70 171t70 171t169 71q92 0 153 -59l104 101q-108 100 -257 100q-160 0 -272 -112.5t-112 -271.5t112 -271.5t272 -112.5q165 0 266.5 105t101.5 270zM1262 585 h109v110h-109v110h-110v-110h-110v-110h110v-110h110v110zM1536 1120v-960q0 -119 -84.5 -203.5t-203.5 -84.5h-960q-119 0 -203.5 84.5t-84.5 203.5v960q0 119 84.5 203.5t203.5 84.5h960q119 0 203.5 -84.5t84.5 -203.5z" />
<glyph unicode="&#xf0d5;" horiz-adv-x="2304" d="M1437 623q0 -208 -87 -370.5t-248 -254t-369 -91.5q-149 0 -285 58t-234 156t-156 234t-58 285t58 285t156 234t234 156t285 58q286 0 491 -192l-199 -191q-117 113 -292 113q-123 0 -227.5 -62t-165.5 -168.5t-61 -232.5t61 -232.5t165.5 -168.5t227.5 -62 q83 0 152.5 23t114.5 57.5t78.5 78.5t49 83t21.5 74h-416v252h692q12 -63 12 -122zM2304 745v-210h-209v-209h-210v209h-209v210h209v209h210v-209h209z" />
<glyph unicode="&#xf0d6;" horiz-adv-x="1920" d="M768 384h384v96h-128v448h-114l-148 -137l77 -80q42 37 55 57h2v-288h-128v-96zM1280 640q0 -70 -21 -142t-59.5 -134t-101.5 -101t-138 -39t-138 39t-101.5 101t-59.5 134t-21 142t21 142t59.5 134t101.5 101t138 39t138 -39t101.5 -101t59.5 -134t21 -142zM1792 384 v512q-106 0 -181 75t-75 181h-1152q0 -106 -75 -181t-181 -75v-512q106 0 181 -75t75 -181h1152q0 106 75 181t181 75zM1920 1216v-1152q0 -26 -19 -45t-45 -19h-1792q-26 0 -45 19t-19 45v1152q0 26 19 45t45 19h1792q26 0 45 -19t19 -45z" />
<glyph unicode="&#xf0d7;" horiz-adv-x="1024" d="M1024 832q0 -26 -19 -45l-448 -448q-19 -19 -45 -19t-45 19l-448 448q-19 19 -19 45t19 45t45 19h896q26 0 45 -19t19 -45z" />
<glyph unicode="&#xf0d8;" horiz-adv-x="1024" d="M1024 320q0 -26 -19 -45t-45 -19h-896q-26 0 -45 19t-19 45t19 45l448 448q19 19 45 19t45 -19l448 -448q19 -19 19 -45z" />
<glyph unicode="&#xf0d9;" horiz-adv-x="640" d="M640 1088v-896q0 -26 -19 -45t-45 -19t-45 19l-448 448q-19 19 -19 45t19 45l448 448q19 19 45 19t45 -19t19 -45z" />
<glyph unicode="&#xf0da;" horiz-adv-x="640" d="M576 640q0 -26 -19 -45l-448 -448q-19 -19 -45 -19t-45 19t-19 45v896q0 26 19 45t45 19t45 -19l448 -448q19 -19 19 -45z" />
<glyph unicode="&#xf0db;" horiz-adv-x="1664" d="M160 0h608v1152h-640v-1120q0 -13 9.5 -22.5t22.5 -9.5zM1536 32v1120h-640v-1152h608q13 0 22.5 9.5t9.5 22.5zM1664 1248v-1216q0 -66 -47 -113t-113 -47h-1344q-66 0 -113 47t-47 113v1216q0 66 47 113t113 47h1344q66 0 113 -47t47 -113z" />
<glyph unicode="&#xf0dc;" horiz-adv-x="1024" d="M1024 448q0 -26 -19 -45l-448 -448q-19 -19 -45 -19t-45 19l-448 448q-19 19 -19 45t19 45t45 19h896q26 0 45 -19t19 -45zM1024 832q0 -26 -19 -45t-45 -19h-896q-26 0 -45 19t-19 45t19 45l448 448q19 19 45 19t45 -19l448 -448q19 -19 19 -45z" />
<glyph unicode="&#xf0dd;" horiz-adv-x="1024" d="M1024 448q0 -26 -19 -45l-448 -448q-19 -19 -45 -19t-45 19l-448 448q-19 19 -19 45t19 45t45 19h896q26 0 45 -19t19 -45z" />
<glyph unicode="&#xf18d;" horiz-adv-x="1280" d="M1259 283v-66q0 -85 -57.5 -144.5t-138.5 -59.5h-57l-260 -269v269h-529q-81 0 -138.5 59.5t-57.5 144.5v66h1238zM1259 609v-255h-1238v255h1238zM1259 937v-255h-1238v255h1238zM1259 1077v-67h-1238v67q0 84 57.5 143.5t138.5 59.5h846q81 0 138.5 -59.5t57.5 -143.5z " />
<glyph unicode="&#xf18e;" d="M1152 640q0 -14 -9 -23l-320 -320q-9 -9 -23 -9q-13 0 -22.5 9.5t-9.5 22.5v192h-352q-13 0 -22.5 9.5t-9.5 22.5v192q0 13 9.5 22.5t22.5 9.5h352v192q0 14 9 23t23 9q12 0 24 -10l319 -319q9 -9 9 -23zM1312 640q0 148 -73 273t-198 198t-273 73t-273 -73t-198 -198 t-73 -273t73 -273t198 -198t273 -73t273 73t198 198t73 273zM1536 640q0 -209 -103 -385.5t-279.5 -279.5t-385.5 -103t-385.5 103t-279.5 279.5t-103 385.5t103 385.5t279.5 279.5t385.5 103t385.5 -103t279.5 -279.5t103 -385.5z" />
<glyph unicode="&#xf190;" d="M1152 736v-192q0 -13 -9.5 -22.5t-22.5 -9.5h-352v-192q0 -14 -9 -23t-23 -9q-12 0 -24 10l-319 319q-9 9 -9 23t9 23l320 320q9 9 23 9q13 0 22.5 -9.5t9.5 -22.5v-192h352q13 0 22.5 -9.5t9.5 -22.5zM1312 640q0 148 -73 273t-198 198t-273 73t-273 -73t-198 -198 t-73 -273t73 -273t198 -198t273 -73t273 73t198 198t73 273zM1536 640q0 -209 -103 -385.5t-279.5 -279.5t-385.5 -103t-385.5 103t-279.5 279.5t-103 385.5t103 385.5t279.5 279.5t385.5 103t385.5 -103t279.5 -279.5t103 -385.5z" />
<glyph unicode="&#xf191;" d="M1024 960v-640q0 -26 -19 -45t-45 -19q-20 0 -37 12l-448 320q-27 19 -27 52t27 52l448 320q17 12 37 12q26 0 45 -19t19 -45zM1280 160v960q0 13 -9.5 22.5t-22.5 9.5h-960q-13 0 -22.5 -9.5t-9.5 -22.5v-960q0 -13 9.5 -22.5t22.5 -9.5h960q13 0 22.5 9.5t9.5 22.5z M1536 1120v-960q0 -119 -84.5 -203.5t-203.5 -84.5h-960q-119 0 -203.5 84.5t-84.5 203.5v960q0 119 84.5 203.5t203.5 84.5h960q119 0 203.5 -84.5t84.5 -203.5z" />
<glyph unicode="&#xf192;" d="M1024 640q0 -106 -75 -181t-181 -75t-181 75t-75 181t75 181t181 75t181 -75t75 -181zM768 1184q-148 0 -273 -73t-198 -198t-73 -273t73 -273t198 -198t273 -73t273 73t198 198t73 273t-73 273t-198 198t-273 73zM1536 640q0 -209 -103 -385.5t-279.5 -279.5 t-385.5 -103t-385.5 103t-279.5 279.5t-103 385.5t103 385.5t279.5 279.5t385.5 103t385.5 -103t279.5 -279.5t103 -385.5z" />
<glyph unicode="&#xf193;" horiz-adv-x="1664" d="M1023 349l102 -204q-58 -179 -210 -290t-339 -111q-156 0 -288.5 77.5t-210 210t-77.5 288.5q0 181 104.5 330t274.5 211l17 -131q-122 -54 -195 -165.5t-73 -244.5q0 -185 131.5 -316.5t316.5 -131.5q126 0 232.5 65t165 175.5t49.5 236.5zM1571 249l58 -114l-256 -128 q-13 -7 -29 -7q-40 0 -57 35l-239 477h-472q-24 0 -42.5 16.5t-21.5 40.5l-96 779q-2 16 6 42q14 51 57 82.5t97 31.5q66 0 113 -47t47 -113q0 -69 -52 -117.5t-120 -41.5l37 -289h423v-128h-407l16 -128h455q40 0 57 -35l228 -455z" />
<glyph unicode="&#xf194;" d="M1292 898q10 216 -161 222q-231 8 -312 -261q44 19 82 19q85 0 74 -96q-4 -57 -74 -167t-105 -110q-43 0 -82 169q-13 54 -45 255q-30 189 -160 177q-59 -7 -164 -100l-81 -72l-81 -72l52 -67q76 52 87 52q57 0 107 -179q15 -55 45 -164.5t45 -164.5q68 -179 164 -179 q157 0 383 294q220 283 226 444zM1536 1120v-960q0 -119 -84.5 -203.5t-203.5 -84.5h-960q-119 0 -203.5 84.5t-84.5 203.5v960q0 119 84.5 203.5t203.5 84.5h960q119 0 203.5 -84.5t84.5 -203.5z" />
<glyph unicode="&#xf195;" horiz-adv-x="1152" d="M1152 704q0 -191 -94.5 -353t-256.5 -256.5t-353 -94.5h-160q-14 0 -23 9t-9 23v611l-215 -66q-3 -1 -9 -1q-10 0 -19 6q-13 10 -13 26v128q0 23 23 31l233 71v93l-215 -66q-3 -1 -9 -1q-10 0 -19 6q-13 10 -13 26v128q0 23 23 31l233 71v250q0 14 9 23t23 9h160 q14 0 23 -9t9 -23v-181l375 116q15 5 28 -5t13 -26v-128q0 -23 -23 -31l-393 -121v-93l375 116q15 5 28 -5t13 -26v-128q0 -23 -23 -31l-393 -121v-487q188 13 318 151t130 328q0 14 9 23t23 9h160q14 0 23 -9t9 -23z" />
<glyph unicode="&#xf196;" horiz-adv-x="1408" d="M1152 736v-64q0 -14 -9 -23t-23 -9h-352v-352q0 -14 -9 -23t-23 -9h-64q-14 0 -23 9t-9 23v352h-352q-14 0 -23 9t-9 23v64q0 14 9 23t23 9h352v352q0 14 9 23t23 9h64q14 0 23 -9t9 -23v-352h352q14 0 23 -9t9 -23zM1280 288v832q0 66 -47 113t-113 47h-832 q-66 0 -113 -47t-47 -113v-832q0 -66 47 -113t113 -47h832q66 0 113 47t47 113zM1408 1120v-832q0 -119 -84.5 -203.5t-203.5 -84.5h-832q-119 0 -203.5 84.5t-84.5 203.5v832q0 119 84.5 203.5t203.5 84.5h832q119 0 203.5 -84.5t84.5 -203.5z" />
<glyph unicode="&#xf197;" horiz-adv-x="2176" d="M620 416q-110 -64 -268 -64h-128v64h-64q-13 0 -22.5 23.5t-9.5 56.5q0 24 7 49q-58 2 -96.5 10.5t-38.5 20.5t38.5 20.5t96.5 10.5q-7 25 -7 49q0 33 9.5 56.5t22.5 23.5h64v64h128q158 0 268 -64h1113q42 -7 106.5 -18t80.5 -14q89 -15 150 -40.5t83.5 -47.5t22.5 -40 t-22.5 -40t-83.5 -47.5t-150 -40.5q-16 -3 -80.5 -14t-106.5 -18h-1113zM1739 668q53 -36 53 -92t-53 -92l81 -30q68 48 68 122t-68 122zM625 400h1015q-217 -38 -456 -80q-57 0 -113 -24t-83 -48l-28 -24l-288 -288q-26 -26 -70.5 -45t-89.5 -19h-96l-93 464h29 q157 0 273 64zM352 816h-29l93 464h96q46 0 90 -19t70 -45l288 -288q4 -4 11 -10.5t30.5 -23t48.5 -29t61.5 -23t72.5 -10.5l456 -80h-1015q-116 64 -273 64z" />
<glyph unicode="&#xf198;" horiz-adv-x="1664" d="M1519 760q62 0 103.5 -40.5t41.5 -101.5q0 -97 -93 -130l-172 -59l56 -167q7 -21 7 -47q0 -59 -42 -102t-101 -43q-47 0 -85.5 27t-53.5 72l-55 165l-310 -106l55 -164q8 -24 8 -47q0 -59 -42 -102t-102 -43q-47 0 -85 27t-53 72l-55 163l-153 -53q-29 -9 -50 -9 q-61 0 -101.5 40t-40.5 101q0 47 27.5 85t71.5 53l156 53l-105 313l-156 -54q-26 -8 -48 -8q-60 0 -101 40.5t-41 100.5q0 47 27.5 85t71.5 53l157 53l-53 159q-8 24 -8 47q0 60 42 102.5t102 42.5q47 0 85 -27t53 -72l54 -160l310 105l-54 160q-8 24 -8 47q0 59 42.5 102 t101.5 43q47 0 85.5 -27.5t53.5 -71.5l53 -161l162 55q21 6 43 6q60 0 102.5 -39.5t42.5 -98.5q0 -45 -30 -81.5t-74 -51.5l-157 -54l105 -316l164 56q24 8 46 8zM725 498l310 105l-105 315l-310 -107z" />
<glyph unicode="&#xf199;" d="M1248 1408q119 0 203.5 -84.5t84.5 -203.5v-960q0 -119 -84.5 -203.5t-203.5 -84.5h-960q-119 0 -203.5 84.5t-84.5 203.5v960q0 119 84.5 203.5t203.5 84.5h960zM1280 352v436q-31 -35 -64 -55q-34 -22 -132.5 -85t-151.5 -99q-98 -69 -164 -69v0v0q-66 0 -164 69 q-46 32 -141.5 92.5t-142.5 92.5q-12 8 -33 27t-31 27v-436q0 -40 28 -68t68 -28h832q40 0 68 28t28 68zM1280 925q0 41 -27.5 70t-68.5 29h-832q-40 0 -68 -28t-28 -68q0 -37 30.5 -76.5t67.5 -64.5q47 -32 137.5 -89t129.5 -83q3 -2 17 -11.5t21 -14t21 -13t23.5 -13 t21.5 -9.5t22.5 -7.5t20.5 -2.5t20.5 2.5t22.5 7.5t21.5 9.5t23.5 13t21 13t21 14t17 11.5l267 174q35 23 66.5 62.5t31.5 73.5z" />
<glyph unicode="&#xf19a;" horiz-adv-x="1792" d="M127 640q0 163 67 313l367 -1005q-196 95 -315 281t-119 411zM1415 679q0 -19 -2.5 -38.5t-10 -49.5t-11.5 -44t-17.5 -59t-17.5 -58l-76 -256l-278 826q46 3 88 8q19 2 26 18.5t-2.5 31t-28.5 13.5l-205 -10q-75 1 -202 10q-12 1 -20.5 -5t-11.5 -15t-1.5 -18.5t9 -16.5 t19.5 -8l80 -8l120 -328l-168 -504l-280 832q46 3 88 8q19 2 26 18.5t-2.5 31t-28.5 13.5l-205 -10q-7 0 -23 0.5t-26 0.5q105 160 274.5 253.5t367.5 93.5q147 0 280.5 -53t238.5 -149h-10q-55 0 -92 -40.5t-37 -95.5q0 -12 2 -24t4 -21.5t8 -23t9 -21t12 -22.5t12.5 -21 t14.5 -24t14 -23q63 -107 63 -212zM909 573l237 -647q1 -6 5 -11q-126 -44 -255 -44q-112 0 -217 32zM1570 1009q95 -174 95 -369q0 -209 -104 -385.5t-279 -278.5l235 678q59 169 59 276q0 42 -6 79zM896 1536q182 0 348 -71t286 -191t191 -286t71 -348t-71 -348t-191 -286 t-286 -191t-348 -71t-348 71t-286 191t-191 286t-71 348t71 348t191 286t286 191t348 71zM896 -215q173 0 331.5 68t273 182.5t182.5 273t68 331.5t-68 331.5t-182.5 273t-273 182.5t-331.5 68t-331.5 -68t-273 -182.5t-182.5 -273t-68 -331.5t68 -331.5t182.5 -273 t273 -182.5t331.5 -68z" />
<glyph unicode="&#xf19b;" horiz-adv-x="1792" d="M1086 1536v-1536l-272 -128q-228 20 -414 102t-293 208.5t-107 272.5q0 140 100.5 263.5t275 205.5t391.5 108v-172q-217 -38 -356.5 -150t-139.5 -255q0 -152 154.5 -267t388.5 -145v1360zM1755 954l37 -390l-525 114l147 83q-119 70 -280 99v172q277 -33 481 -157z" />
<glyph unicode="&#xf19c;" horiz-adv-x="2048" d="M960 1536l960 -384v-128h-128q0 -26 -20.5 -45t-48.5 -19h-1526q-28 0 -48.5 19t-20.5 45h-128v128zM256 896h256v-768h128v768h256v-768h128v768h256v-768h128v768h256v-768h59q28 0 48.5 -19t20.5 -45v-64h-1664v64q0 26 20.5 45t48.5 19h59v768zM1851 -64 q28 0 48.5 -19t20.5 -45v-128h-1920v128q0 26 20.5 45t48.5 19h1782z" />
<glyph unicode="&#xf19d;" horiz-adv-x="2304" d="M1774 700l18 -316q4 -69 -82 -128t-235 -93.5t-323 -34.5t-323 34.5t-235 93.5t-82 128l18 316l574 -181q22 -7 48 -7t48 7zM2304 1024q0 -23 -22 -31l-1120 -352q-4 -1 -10 -1t-10 1l-652 206q-43 -34 -71 -111.5t-34 -178.5q63 -36 63 -109q0 -69 -58 -107l58 -433 q2 -14 -8 -25q-9 -11 -24 -11h-192q-15 0 -24 11q-10 11 -8 25l58 433q-58 38 -58 107q0 73 65 111q11 207 98 330l-333 104q-22 8 -22 31t22 31l1120 352q4 1 10 1t10 -1l1120 -352q22 -8 22 -31z" />
<glyph unicode="&#xf19e;" d="M859 579l13 -707q-62 11 -105 11q-41 0 -105 -11l13 707q-40 69 -168.5 295.5t-216.5 374.5t-181 287q58 -15 108 -15q43 0 111 15q63 -111 133.5 -229.5t167 -276.5t138.5 -227q37 61 109.5 177.5t117.5 190t105 176t107 189.5q54 -14 107 -14q56 0 114 14v0 q-28 -39 -60 -88.5t-49.5 -78.5t-56.5 -96t-49 -84q-146 -248 -353 -610z" />
<glyph unicode="&#xf1a0;" d="M768 750h725q12 -67 12 -128q0 -217 -91 -387.5t-259.5 -266.5t-386.5 -96q-157 0 -299 60.5t-245 163.5t-163.5 245t-60.5 299t60.5 299t163.5 245t245 163.5t299 60.5q300 0 515 -201l-209 -201q-123 119 -306 119q-129 0 -238.5 -65t-173.5 -176.5t-64 -243.5 t64 -243.5t173.5 -176.5t238.5 -65q87 0 160 24t120 60t82 82t51.5 87t22.5 78h-436v264z" />
<glyph unicode="&#xf1a1;" horiz-adv-x="1792" d="M1095 369q16 -16 0 -31q-62 -62 -199 -62t-199 62q-16 15 0 31q6 6 15 6t15 -6q48 -49 169 -49q120 0 169 49q6 6 15 6t15 -6zM788 550q0 -37 -26 -63t-63 -26t-63.5 26t-26.5 63q0 38 26.5 64t63.5 26t63 -26.5t26 -63.5zM1183 550q0 -37 -26.5 -63t-63.5 -26t-63 26 t-26 63t26 63.5t63 26.5t63.5 -26t26.5 -64zM1434 670q0 49 -35 84t-85 35t-86 -36q-130 90 -311 96l63 283l200 -45q0 -37 26 -63t63 -26t63.5 26.5t26.5 63.5t-26.5 63.5t-63.5 26.5q-54 0 -80 -50l-221 49q-19 5 -25 -16l-69 -312q-180 -7 -309 -97q-35 37 -87 37 q-50 0 -85 -35t-35 -84q0 -35 18.5 -64t49.5 -44q-6 -27 -6 -56q0 -142 140 -243t337 -101q198 0 338 101t140 243q0 32 -7 57q30 15 48 43.5t18 63.5zM1792 640q0 -182 -71 -348t-191 -286t-286 -191t-348 -71t-348 71t-286 191t-191 286t-71 348t71 348t191 286t286 191 t348 71t348 -71t286 -191t191 -286t71 -348z" />
<glyph unicode="&#xf1a2;" d="M939 407q13 -13 0 -26q-53 -53 -171 -53t-171 53q-13 13 0 26q5 6 13 6t13 -6q42 -42 145 -42t145 42q5 6 13 6t13 -6zM676 563q0 -31 -23 -54t-54 -23t-54 23t-23 54q0 32 22.5 54.5t54.5 22.5t54.5 -22.5t22.5 -54.5zM1014 563q0 -31 -23 -54t-54 -23t-54 23t-23 54 q0 32 22.5 54.5t54.5 22.5t54.5 -22.5t22.5 -54.5zM1229 666q0 42 -30 72t-73 30q-42 0 -73 -31q-113 78 -267 82l54 243l171 -39q1 -32 23.5 -54t53.5 -22q32 0 54.5 22.5t22.5 54.5t-22.5 54.5t-54.5 22.5q-48 0 -69 -43l-189 42q-17 5 -21 -13l-60 -268q-154 -6 -265 -83 q-30 32 -74 32q-43 0 -73 -30t-30 -72q0 -30 16 -55t42 -38q-5 -25 -5 -48q0 -122 120 -208.5t289 -86.5q170 0 290 86.5t120 208.5q0 25 -6 49q25 13 40.5 37.5t15.5 54.5zM1536 1120v-960q0 -119 -84.5 -203.5t-203.5 -84.5h-960q-119 0 -203.5 84.5t-84.5 203.5v960 q0 119 84.5 203.5t203.5 84.5h960q119 0 203.5 -84.5t84.5 -203.5z" />
<glyph unicode="&#xf1a3;" d="M866 697l90 27v62q0 79 -58 135t-138 56t-138 -55.5t-58 -134.5v-283q0 -20 -14 -33.5t-33 -13.5t-32.5 13.5t-13.5 33.5v120h-151v-122q0 -82 57.5 -139t139.5 -57q81 0 138.5 56.5t57.5 136.5v280q0 19 13.5 33t33.5 14q19 0 32.5 -14t13.5 -33v-54zM1199 502v122h-150 v-126q0 -20 -13.5 -33.5t-33.5 -13.5q-19 0 -32.5 14t-13.5 33v123l-90 -26l-60 28v-123q0 -80 58 -137t139 -57t138.5 57t57.5 139zM1536 640q0 -209 -103 -385.5t-279.5 -279.5t-385.5 -103t-385.5 103t-279.5 279.5t-103 385.5t103 385.5t279.5 279.5t385.5 103 t385.5 -103t279.5 -279.5t103 -385.5z" />
<glyph unicode="&#xf1a4;" horiz-adv-x="1920" d="M1062 824v118q0 42 -30 72t-72 30t-72 -30t-30 -72v-612q0 -175 -126 -299t-303 -124q-178 0 -303.5 125.5t-125.5 303.5v266h328v-262q0 -43 30 -72.5t72 -29.5t72 29.5t30 72.5v620q0 171 126.5 292t301.5 121q176 0 302 -122t126 -294v-136l-195 -58zM1592 602h328 v-266q0 -178 -125.5 -303.5t-303.5 -125.5q-177 0 -303 124.5t-126 300.5v268l131 -61l195 58v-270q0 -42 30 -71.5t72 -29.5t72 29.5t30 71.5v275z" />
<glyph unicode="&#xf1e7;" horiz-adv-x="1792" d="M873 796q0 -83 -63.5 -142.5t-152.5 -59.5t-152.5 59.5t-63.5 142.5q0 84 63.5 143t152.5 59t152.5 -59t63.5 -143zM1375 796q0 -83 -63 -142.5t-153 -59.5q-89 0 -152.5 59.5t-63.5 142.5q0 84 63.5 143t152.5 59q90 0 153 -59t63 -143zM1600 616v667q0 87 -32 123.5 t-111 36.5h-1112q-83 0 -112.5 -34t-29.5 -126v-673q43 -23 88.5 -40t81 -28t81 -18.5t71 -11t70 -4t58.5 -0.5t56.5 2t44.5 2q68 1 95 -27q6 -6 10 -9q26 -25 61 -51q7 91 118 87q5 0 36.5 -1.5t43 -2t45.5 -1t53 1t54.5 4.5t61 8.5t62 13.5t67 19.5t67.5 27t72 34.5z M1763 621q-121 -149 -372 -252q84 -285 -23 -465q-66 -113 -183 -148q-104 -32 -182 15q-86 51 -82 164l-1 326v1q-8 2 -24.5 6t-23.5 5l-1 -338q4 -114 -83 -164q-79 -47 -183 -15q-117 36 -182 150q-105 180 -22 463q-251 103 -372 252q-25 37 -4 63t60 -1q3 -2 11 -7 t11 -8v694q0 72 47 123t114 51h1257q67 0 114 -51t47 -123v-694l21 15q39 27 60 1t-4 -63z" />
<glyph unicode="&#xf1e8;" horiz-adv-x="1792" d="M896 1102v-434h-145v434h145zM1294 1102v-434h-145v434h145zM1294 342l253 254v795h-1194v-1049h326v-217l217 217h398zM1692 1536v-1013l-434 -434h-326l-217 -217h-217v217h-398v1158l109 289h1483z" />
<glyph unicode="&#xf1e9;" d="M773 217v-127q-1 -292 -6 -305q-12 -32 -51 -40q-54 -9 -181.5 38t-162.5 89q-13 15 -17 36q-1 12 4 26q4 10 34 47t181 216q1 0 60 70q15 19 39.5 24.5t49.5 -3.5q24 -10 37.5 -29t12.5 -42zM624 468q-3 -55 -52 -70l-120 -39q-275 -88 -292 -88q-35 2 -54 36 q-12 25 -17 75q-8 76 1 166.5t30 124.5t56 32q13 0 202 -77q70 -29 115 -47l84 -34q23 -9 35.5 -30.5t11.5 -48.5zM1450 171q-7 -54 -91.5 -161t-135.5 -127q-37 -14 -63 7q-14 10 -184 287l-47 77q-14 21 -11.5 46t19.5 46q35 43 83 26q1 -1 119 -40q203 -66 242 -79.5 t47 -20.5q28 -22 22 -61zM778 803q5 -102 -54 -122q-58 -17 -114 71l-378 598q-8 35 19 62q41 43 207.5 89.5t224.5 31.5q40 -10 49 -45q3 -18 22 -305.5t24 -379.5zM1440 695q3 -39 -26 -59q-15 -10 -329 -86q-67 -15 -91 -23l1 2q-23 -6 -46 4t-37 32q-30 47 0 87 q1 1 75 102q125 171 150 204t34 39q28 19 65 2q48 -23 123 -133.5t81 -167.5v-3z" />
<glyph unicode="&#xf1ea;" horiz-adv-x="2048" d="M1024 1024h-384v-384h384v384zM1152 384v-128h-640v128h640zM1152 1152v-640h-640v640h640zM1792 384v-128h-512v128h512zM1792 640v-128h-512v128h512zM1792 896v-128h-512v128h512zM1792 1152v-128h-512v128h512zM256 192v960h-128v-960q0 -26 19 -45t45 -19t45 19 t19 45zM1920 192v1088h-1536v-1088q0 -33 -11 -64h1483q26 0 45 19t19 45zM2048 1408v-1216q0 -80 -56 -136t-136 -56h-1664q-80 0 -136 56t-56 136v1088h256v128h1792z" />
<glyph unicode="&#xf1eb;" horiz-adv-x="2048" d="M1024 13q-20 0 -93 73.5t-73 93.5q0 32 62.5 54t103.5 22t103.5 -22t62.5 -54q0 -20 -73 -93.5t-93 -73.5zM1294 284q-2 0 -40 25t-101.5 50t-128.5 25t-128.5 -25t-101 -50t-40.5 -25q-18 0 -93.5 75t-75.5 93q0 13 10 23q78 77 196 121t233 44t233 -44t196 -121 q10 -10 10 -23q0 -18 -75.5 -93t-93.5 -75zM1567 556q-11 0 -23 8q-136 105 -252 154.5t-268 49.5q-85 0 -170.5 -22t-149 -53t-113.5 -62t-79 -53t-31 -22q-17 0 -92 75t-75 93q0 12 10 22q132 132 320 205t380 73t380 -73t320 -205q10 -10 10 -22q0 -18 -75 -93t-92 -75z M1838 827q-11 0 -22 9q-179 157 -371.5 236.5t-420.5 79.5t-420.5 -79.5t-371.5 -236.5q-11 -9 -22 -9q-17 0 -92.5 75t-75.5 93q0 13 10 23q187 186 445 288t527 102t527 -102t445 -288q10 -10 10 -23q0 -18 -75.5 -93t-92.5 -75z" />
<glyph unicode="&#xf1ec;" horiz-adv-x="1792" d="M384 0q0 53 -37.5 90.5t-90.5 37.5t-90.5 -37.5t-37.5 -90.5t37.5 -90.5t90.5 -37.5t90.5 37.5t37.5 90.5zM768 0q0 53 -37.5 90.5t-90.5 37.5t-90.5 -37.5t-37.5 -90.5t37.5 -90.5t90.5 -37.5t90.5 37.5t37.5 90.5zM384 384q0 53 -37.5 90.5t-90.5 37.5t-90.5 -37.5 t-37.5 -90.5t37.5 -90.5t90.5 -37.5t90.5 37.5t37.5 90.5zM1152 0q0 53 -37.5 90.5t-90.5 37.5t-90.5 -37.5t-37.5 -90.5t37.5 -90.5t90.5 -37.5t90.5 37.5t37.5 90.5zM768 384q0 53 -37.5 90.5t-90.5 37.5t-90.5 -37.5t-37.5 -90.5t37.5 -90.5t90.5 -37.5t90.5 37.5 t37.5 90.5zM384 768q0 53 -37.5 90.5t-90.5 37.5t-90.5 -37.5t-37.5 -90.5t37.5 -90.5t90.5 -37.5t90.5 37.5t37.5 90.5zM1152 384q0 53 -37.5 90.5t-90.5 37.5t-90.5 -37.5t-37.5 -90.5t37.5 -90.5t90.5 -37.5t90.5 37.5t37.5 90.5zM768 768q0 53 -37.5 90.5t-90.5 37.5 t-90.5 -37.5t-37.5 -90.5t37.5 -90.5t90.5 -37.5t90.5 37.5t37.5 90.5zM1536 0v384q0 52 -38 90t-90 38t-90 -38t-38 -90v-384q0 -52 38 -90t90 -38t90 38t38 90zM1152 768q0 53 -37.5 90.5t-90.5 37.5t-90.5 -37.5t-37.5 -90.5t37.5 -90.5t90.5 -37.5t90.5 37.5t37.5 90.5z M1536 1088v256q0 26 -19 45t-45 19h-1280q-26 0 -45 -19t-19 -45v-256q0 -26 19 -45t45 -19h1280q26 0 45 19t19 45zM1536 768q0 53 -37.5 90.5t-90.5 37.5t-90.5 -37.5t-37.5 -90.5t37.5 -90.5t90.5 -37.5t90.5 37.5t37.5 90.5zM1664 1408v-1536q0 -52 -38 -90t-90 -38 h-1408q-52 0 -90 38t-38 90v1536q0 52 38 90t90 38h1408q52 0 90 -38t38 -90z" />
<glyph unicode="&#xf1ed;" d="M1519 890q18 -84 -4 -204q-87 -444 -565 -444h-44q-25 0 -44 -16.5t-24 -42.5l-4 -19l-55 -346l-2 -15q-5 -26 -24.5 -42.5t-44.5 -16.5h-251q-21 0 -33 15t-9 36q9 56 26.5 168t26.5 168t27 167.5t27 167.5q5 37 43 37h131q133 -2 236 21q175 39 287 144q102 95 155 246 q24 70 35 133q1 6 2.5 7.5t3.5 1t6 -3.5q79 -59 98 -162zM1347 1172q0 -107 -46 -236q-80 -233 -302 -315q-113 -40 -252 -42q0 -1 -90 -1l-90 1q-100 0 -118 -96q-2 -8 -85 -530q-1 -10 -12 -10h-295q-22 0 -36.5 16.5t-11.5 38.5l232 1471q5 29 27.5 48t51.5 19h598 q34 0 97.5 -13t111.5 -32q107 -41 163.5 -123t56.5 -196z" />
<glyph unicode="&#xf1ee;" horiz-adv-x="1792" d="M441 864q32 0 52 -26q266 -364 362 -774h-446q-127 441 -367 749q-12 16 -3 33.5t29 17.5h373zM1000 507q-49 -199 -125 -393q-79 310 -256 594q40 221 44 449q211 -340 337 -650zM1099 1216q235 -324 384.5 -698.5t184.5 -773.5h-451q-41 665 -553 1472h435zM1792 640 q0 -424 -101 -812q-67 560 -359 1083q-25 301 -106 584q-4 16 5.5 28.5t25.5 12.5h359q21 0 38.5 -13t22.5 -33q115 -409 115 -850z" />
<glyph unicode="&#xf1f0;" horiz-adv-x="2304" d="M1975 546h-138q14 37 66 179l3 9q4 10 10 26t9 26l12 -55zM531 611l-58 295q-11 54 -75 54h-268l-2 -13q311 -79 403 -336zM710 960l-162 -438l-17 89q-26 70 -85 129.5t-131 88.5l135 -510h175l261 641h-176zM849 318h166l104 642h-166zM1617 944q-69 27 -149 27 q-123 0 -201 -59t-79 -153q-1 -102 145 -174q48 -23 67 -41t19 -39q0 -30 -30 -46t-69 -16q-86 0 -156 33l-22 11l-23 -144q74 -34 185 -34q130 -1 208.5 59t80.5 160q0 106 -140 174q-49 25 -71 42t-22 38q0 22 24.5 38.5t70.5 16.5q70 1 124 -24l15 -8zM2042 960h-128 q-65 0 -87 -54l-246 -588h174l35 96h212q5 -22 20 -96h154zM2304 1280v-1280q0 -52 -38 -90t-90 -38h-2048q-52 0 -90 38t-38 90v1280q0 52 38 90t90 38h2048q52 0 90 -38t38 -90z" />
<glyph unicode="&#xf1f1;" horiz-adv-x="2304" d="M671 603h-13q-47 0 -47 -32q0 -22 20 -22q17 0 28 15t12 39zM1066 639h62v3q1 4 0.5 6.5t-1 7t-2 8t-4.5 6.5t-7.5 5t-11.5 2q-28 0 -36 -38zM1606 603h-12q-48 0 -48 -32q0 -22 20 -22q17 0 28 15t12 39zM1925 629q0 41 -30 41q-19 0 -31 -20t-12 -51q0 -42 28 -42 q20 0 32.5 20t12.5 52zM480 770h87l-44 -262h-56l32 201l-71 -201h-39l-4 200l-34 -200h-53l44 262h81l2 -163zM733 663q0 -6 -4 -42q-16 -101 -17 -113h-47l1 22q-20 -26 -58 -26q-23 0 -37.5 16t-14.5 42q0 39 26 60.5t73 21.5q14 0 23 -1q0 3 0.5 5.5t1 4.5t0.5 3 q0 20 -36 20q-29 0 -59 -10q0 4 7 48q38 11 67 11q74 0 74 -62zM889 721l-8 -49q-22 3 -41 3q-27 0 -27 -17q0 -8 4.5 -12t21.5 -11q40 -19 40 -60q0 -72 -87 -71q-34 0 -58 6q0 2 7 49q29 -8 51 -8q32 0 32 19q0 7 -4.5 11.5t-21.5 12.5q-43 20 -43 59q0 72 84 72 q30 0 50 -4zM977 721h28l-7 -52h-29q-2 -17 -6.5 -40.5t-7 -38.5t-2.5 -18q0 -16 19 -16q8 0 16 2l-8 -47q-21 -7 -40 -7q-43 0 -45 47q0 12 8 56q3 20 25 146h55zM1180 648q0 -23 -7 -52h-111q-3 -22 10 -33t38 -11q30 0 58 14l-9 -54q-30 -8 -57 -8q-95 0 -95 95 q0 55 27.5 90.5t69.5 35.5q35 0 55.5 -21t20.5 -56zM1319 722q-13 -23 -22 -62q-22 2 -31 -24t-25 -128h-56l3 14q22 130 29 199h51l-3 -33q14 21 25.5 29.5t28.5 4.5zM1506 763l-9 -57q-28 14 -50 14q-31 0 -51 -27.5t-20 -70.5q0 -30 13.5 -47t38.5 -17q21 0 48 13 l-10 -59q-28 -8 -50 -8q-45 0 -71.5 30.5t-26.5 82.5q0 70 35.5 114.5t91.5 44.5q26 0 61 -13zM1668 663q0 -18 -4 -42q-13 -79 -17 -113h-46l1 22q-20 -26 -59 -26q-23 0 -37 16t-14 42q0 39 25.5 60.5t72.5 21.5q15 0 23 -1q2 7 2 13q0 20 -36 20q-29 0 -59 -10q0 4 8 48 q38 11 67 11q73 0 73 -62zM1809 722q-14 -24 -21 -62q-23 2 -31.5 -23t-25.5 -129h-56l3 14q19 104 29 199h52q0 -11 -4 -33q15 21 26.5 29.5t27.5 4.5zM1950 770h56l-43 -262h-53l3 19q-23 -23 -52 -23q-31 0 -49.5 24t-18.5 64q0 53 27.5 92t64.5 39q31 0 53 -29z M2061 640q0 148 -72.5 273t-198 198t-273.5 73q-181 0 -328 -110q127 -116 171 -284h-50q-44 150 -158 253q-114 -103 -158 -253h-50q44 168 171 284q-147 110 -328 110q-148 0 -273.5 -73t-198 -198t-72.5 -273t72.5 -273t198 -198t273.5 -73q181 0 328 110 q-120 111 -165 264h50q46 -138 152 -233q106 95 152 233h50q-45 -153 -165 -264q147 -110 328 -110q148 0 273.5 73t198 198t72.5 273zM2304 1280v-1280q0 -52 -38 -90t-90 -38h-2048q-52 0 -90 38t-38 90v1280q0 52 38 90t90 38h2048q52 0 90 -38t38 -90z" />
<glyph unicode="&#xf1f2;" horiz-adv-x="2304" d="M313 759q0 -51 -36 -84q-29 -26 -89 -26h-17v220h17q61 0 89 -27q36 -31 36 -83zM2089 824q0 -52 -64 -52h-19v101h20q63 0 63 -49zM380 759q0 74 -50 120.5t-129 46.5h-95v-333h95q74 0 119 38q60 51 60 128zM410 593h65v333h-65v-333zM730 694q0 40 -20.5 62t-75.5 42 q-29 10 -39.5 19t-10.5 23q0 16 13.5 26.5t34.5 10.5q29 0 53 -27l34 44q-41 37 -98 37q-44 0 -74 -27.5t-30 -67.5q0 -35 18 -55.5t64 -36.5q37 -13 45 -19q19 -12 19 -34q0 -20 -14 -33.5t-36 -13.5q-48 0 -71 44l-42 -40q44 -64 115 -64q51 0 83 30.5t32 79.5zM1008 604 v77q-37 -37 -78 -37q-49 0 -80.5 32.5t-31.5 82.5q0 48 31.5 81.5t77.5 33.5q43 0 81 -38v77q-40 20 -80 20q-74 0 -125.5 -50.5t-51.5 -123.5t51 -123.5t125 -50.5q42 0 81 19zM2240 0v527q-65 -40 -144.5 -84t-237.5 -117t-329.5 -137.5t-417.5 -134.5t-504 -118h1569 q26 0 45 19t19 45zM1389 757q0 75 -53 128t-128 53t-128 -53t-53 -128t53 -128t128 -53t128 53t53 128zM1541 584l144 342h-71l-90 -224l-89 224h-71l142 -342h35zM1714 593h184v56h-119v90h115v56h-115v74h119v57h-184v-333zM2105 593h80l-105 140q76 16 76 94q0 47 -31 73 t-87 26h-97v-333h65v133h9zM2304 1274v-1268q0 -56 -38.5 -95t-93.5 -39h-2040q-55 0 -93.5 39t-38.5 95v1268q0 56 38.5 95t93.5 39h2040q55 0 93.5 -39t38.5 -95z" />
<glyph unicode="&#xf1f3;" horiz-adv-x="2304" d="M119 854h89l-45 108zM740 328l74 79l-70 79h-163v-49h142v-55h-142v-54h159zM898 406l99 -110v217zM1186 453q0 33 -40 33h-84v-69h83q41 0 41 36zM1475 457q0 29 -42 29h-82v-61h81q43 0 43 32zM1197 923q0 29 -42 29h-82v-60h81q43 0 43 31zM1656 854h89l-44 108z M699 1009v-271h-66v212l-94 -212h-57l-94 212v-212h-132l-25 60h-135l-25 -60h-70l116 271h96l110 -257v257h106l85 -184l77 184h108zM1255 453q0 -20 -5.5 -35t-14 -25t-22.5 -16.5t-26 -10t-31.5 -4.5t-31.5 -1t-32.5 0.5t-29.5 0.5v-91h-126l-80 90l-83 -90h-256v271h260 l80 -89l82 89h207q109 0 109 -89zM964 794v-56h-217v271h217v-57h-152v-49h148v-55h-148v-54h152zM2304 235v-229q0 -55 -38.5 -94.5t-93.5 -39.5h-2040q-55 0 -93.5 39.5t-38.5 94.5v678h111l25 61h55l25 -61h218v46l19 -46h113l20 47v-47h541v99l10 1q10 0 10 -14v-86h279 v23q23 -12 55 -18t52.5 -6.5t63 0.5t51.5 1l25 61h56l25 -61h227v58l34 -58h182v378h-180v-44l-25 44h-185v-44l-23 44h-249q-69 0 -109 -22v22h-172v-22q-24 22 -73 22h-628l-43 -97l-43 97h-198v-44l-22 44h-169l-78 -179v391q0 55 38.5 94.5t93.5 39.5h2040 q55 0 93.5 -39.5t38.5 -94.5v-678h-120q-51 0 -81 -22v22h-177q-55 0 -78 -22v22h-316v-22q-31 22 -87 22h-209v-22q-23 22 -91 22h-234l-54 -58l-50 58h-349v-378h343l55 59l52 -59h211v89h21q59 0 90 13v-102h174v99h8q8 0 10 -2t2 -10v-87h529q57 0 88 24v-24h168 q60 0 95 17zM1546 469q0 -23 -12 -43t-34 -29q25 -9 34 -26t9 -46v-54h-65v45q0 33 -12 43.5t-46 10.5h-69v-99h-65v271h154q48 0 77 -15t29 -58zM1269 936q0 -24 -12.5 -44t-33.5 -29q26 -9 34.5 -25.5t8.5 -46.5v-53h-65q0 9 0.5 26.5t0 25t-3 18.5t-8.5 16t-17.5 8.5 t-29.5 3.5h-70v-98h-64v271l153 -1q49 0 78 -14.5t29 -57.5zM1798 327v-56h-216v271h216v-56h-151v-49h148v-55h-148v-54zM1372 1009v-271h-66v271h66zM2065 357q0 -86 -102 -86h-126v58h126q34 0 34 25q0 16 -17 21t-41.5 5t-49.5 3.5t-42 22.5t-17 55q0 39 26 60t66 21 h130v-57h-119q-36 0 -36 -25q0 -16 17.5 -20.5t42 -4t49 -2.5t42 -21.5t17.5 -54.5zM2304 407v-101q-24 -35 -88 -35h-125v58h125q33 0 33 25q0 13 -12.5 19t-31 5.5t-40 2t-40 8t-31 24t-12.5 48.5q0 39 26.5 60t66.5 21h129v-57h-118q-36 0 -36 -25q0 -20 29 -22t68.5 -5 t56.5 -26zM2139 1008v-270h-92l-122 203v-203h-132l-26 60h-134l-25 -60h-75q-129 0 -129 133q0 138 133 138h63v-59q-7 0 -28 1t-28.5 0.5t-23 -2t-21.5 -6.5t-14.5 -13.5t-11.5 -23t-3 -33.5q0 -38 13.5 -58t49.5 -20h29l92 213h97l109 -256v256h99l114 -188v188h66z" />
<glyph unicode="&#xf1f4;" horiz-adv-x="2304" d="M745 630q0 -37 -25.5 -61.5t-62.5 -24.5q-29 0 -46.5 16t-17.5 44q0 37 25 62.5t62 25.5q28 0 46.5 -16.5t18.5 -45.5zM1530 779q0 -42 -22 -57t-66 -15l-32 -1l17 107q2 11 13 11h18q22 0 35 -2t25 -12.5t12 -30.5zM1881 630q0 -36 -25.5 -61t-61.5 -25q-29 0 -47 16 t-18 44q0 37 25 62.5t62 25.5q28 0 46.5 -16.5t18.5 -45.5zM513 801q0 59 -38.5 85.5t-100.5 26.5h-160q-19 0 -21 -19l-65 -408q-1 -6 3 -11t10 -5h76q20 0 22 19l18 110q1 8 7 13t15 6.5t17 1.5t19 -1t14 -1q86 0 135 48.5t49 134.5zM822 489l41 261q1 6 -3 11t-10 5h-76 q-14 0 -17 -33q-27 40 -95 40q-72 0 -122.5 -54t-50.5 -127q0 -59 34.5 -94t92.5 -35q28 0 58 12t48 32q-4 -12 -4 -21q0 -16 13 -16h69q19 0 22 19zM1269 752q0 5 -4 9.5t-9 4.5h-77q-11 0 -18 -10l-106 -156l-44 150q-5 16 -22 16h-75q-5 0 -9 -4.5t-4 -9.5q0 -2 19.5 -59 t42 -123t23.5 -70q-82 -112 -82 -120q0 -13 13 -13h77q11 0 18 10l255 368q2 2 2 7zM1649 801q0 59 -38.5 85.5t-100.5 26.5h-159q-20 0 -22 -19l-65 -408q-1 -6 3 -11t10 -5h82q12 0 16 13l18 116q1 8 7 13t15 6.5t17 1.5t19 -1t14 -1q86 0 135 48.5t49 134.5zM1958 489 l41 261q1 6 -3 11t-10 5h-76q-14 0 -17 -33q-26 40 -95 40q-72 0 -122.5 -54t-50.5 -127q0 -59 34.5 -94t92.5 -35q29 0 59 12t47 32q0 -1 -2 -9t-2 -12q0 -16 13 -16h69q19 0 22 19zM2176 898v1q0 14 -13 14h-74q-11 0 -13 -11l-65 -416l-1 -2q0 -5 4 -9.5t10 -4.5h66 q19 0 21 19zM392 764q-5 -35 -26 -46t-60 -11l-33 -1l17 107q2 11 13 11h19q40 0 58 -11.5t12 -48.5zM2304 1280v-1280q0 -52 -38 -90t-90 -38h-2048q-52 0 -90 38t-38 90v1280q0 52 38 90t90 38h2048q52 0 90 -38t38 -90z" />
<glyph unicode="&#xf1f5;" horiz-adv-x="2304" d="M1597 633q0 -69 -21 -106q-19 -35 -52 -35q-23 0 -41 9v224q29 30 57 30q57 0 57 -122zM2035 669h-110q6 98 56 98q51 0 54 -98zM476 534q0 59 -33 91.5t-101 57.5q-36 13 -52 24t-16 25q0 26 38 26q58 0 124 -33l18 112q-67 32 -149 32q-77 0 -123 -38q-48 -39 -48 -109 q0 -58 32.5 -90.5t99.5 -56.5q39 -14 54.5 -25.5t15.5 -27.5q0 -31 -48 -31q-29 0 -70 12.5t-72 30.5l-18 -113q72 -41 168 -41q81 0 129 37q51 41 51 117zM771 749l19 111h-96v135l-129 -21l-18 -114l-46 -8l-17 -103h62v-219q0 -84 44 -120q38 -30 111 -30q32 0 79 11v118 q-32 -7 -44 -7q-42 0 -42 50v197h77zM1087 724v139q-15 3 -28 3q-32 0 -55.5 -16t-33.5 -46l-10 56h-131v-471h150v306q26 31 82 31q16 0 26 -2zM1124 389h150v471h-150v-471zM1746 638q0 122 -45 179q-40 52 -111 52q-64 0 -117 -56l-8 47h-132v-645l150 25v151 q36 -11 68 -11q83 0 134 56q61 65 61 202zM1278 986q0 33 -23 56t-56 23t-56 -23t-23 -56t23 -56.5t56 -23.5t56 23.5t23 56.5zM2176 629q0 113 -48 176q-50 64 -144 64q-96 0 -151.5 -66t-55.5 -180q0 -128 63 -188q55 -55 161 -55q101 0 160 40l-16 103q-57 -31 -128 -31 q-43 0 -63 19q-23 19 -28 66h248q2 14 2 52zM2304 1280v-1280q0 -52 -38 -90t-90 -38h-2048q-52 0 -90 38t-38 90v1280q0 52 38 90t90 38h2048q52 0 90 -38t38 -90z" />
<glyph unicode="&#xf1f6;" horiz-adv-x="2048" d="M1558 684q61 -356 298 -556q0 -52 -38 -90t-90 -38h-448q0 -106 -75 -181t-181 -75t-180.5 74.5t-75.5 180.5zM1024 -176q16 0 16 16t-16 16q-59 0 -101.5 42.5t-42.5 101.5q0 16 -16 16t-16 -16q0 -73 51.5 -124.5t124.5 -51.5zM2026 1424q8 -10 7.5 -23.5t-10.5 -22.5 l-1872 -1622q-10 -8 -23.5 -7t-21.5 11l-84 96q-8 10 -7.5 23.5t10.5 21.5l186 161q-19 32 -19 66q50 42 91 88t85 119.5t74.5 158.5t50 206t19.5 260q0 152 117 282.5t307 158.5q-8 19 -8 39q0 40 28 68t68 28t68 -28t28 -68q0 -20 -8 -39q124 -18 219 -82.5t148 -157.5 l418 363q10 8 23.5 7t21.5 -11z" />
<glyph unicode="&#xf1f7;" horiz-adv-x="2048" d="M1040 -160q0 16 -16 16q-59 0 -101.5 42.5t-42.5 101.5q0 16 -16 16t-16 -16q0 -73 51.5 -124.5t124.5 -51.5q16 0 16 16zM503 315l877 760q-42 88 -132.5 146.5t-223.5 58.5q-93 0 -169.5 -31.5t-121.5 -80.5t-69 -103t-24 -105q0 -384 -137 -645zM1856 128 q0 -52 -38 -90t-90 -38h-448q0 -106 -75 -181t-181 -75t-180.5 74.5t-75.5 180.5l149 129h757q-166 187 -227 459l111 97q61 -356 298 -556zM1942 1520l84 -96q8 -10 7.5 -23.5t-10.5 -22.5l-1872 -1622q-10 -8 -23.5 -7t-21.5 11l-84 96q-8 10 -7.5 23.5t10.5 21.5l186 161 q-19 32 -19 66q50 42 91 88t85 119.5t74.5 158.5t50 206t19.5 260q0 152 117 282.5t307 158.5q-8 19 -8 39q0 40 28 68t68 28t68 -28t28 -68q0 -20 -8 -39q124 -18 219 -82.5t148 -157.5l418 363q10 8 23.5 7t21.5 -11z" />
<glyph unicode="&#xf1f8;" horiz-adv-x="1408" d="M512 160v704q0 14 -9 23t-23 9h-64q-14 0 -23 -9t-9 -23v-704q0 -14 9 -23t23 -9h64q14 0 23 9t9 23zM768 160v704q0 14 -9 23t-23 9h-64q-14 0 -23 -9t-9 -23v-704q0 -14 9 -23t23 -9h64q14 0 23 9t9 23zM1024 160v704q0 14 -9 23t-23 9h-64q-14 0 -23 -9t-9 -23v-704 q0 -14 9 -23t23 -9h64q14 0 23 9t9 23zM480 1152h448l-48 117q-7 9 -17 11h-317q-10 -2 -17 -11zM1408 1120v-64q0 -14 -9 -23t-23 -9h-96v-948q0 -83 -47 -143.5t-113 -60.5h-832q-66 0 -113 58.5t-47 141.5v952h-96q-14 0 -23 9t-9 23v64q0 14 9 23t23 9h309l70 167 q15 37 54 63t79 26h320q40 0 79 -26t54 -63l70 -167h309q14 0 23 -9t9 -23z" />
<glyph unicode="&#xf1f9;" d="M1150 462v-109q0 -50 -36.5 -89t-94 -60.5t-118 -32.5t-117.5 -11q-205 0 -342.5 139t-137.5 346q0 203 136 339t339 136q34 0 75.5 -4.5t93 -18t92.5 -34t69 -56.5t28 -81v-109q0 -16 -16 -16h-118q-16 0 -16 16v70q0 43 -65.5 67.5t-137.5 24.5q-140 0 -228.5 -91.5 t-88.5 -237.5q0 -151 91.5 -249.5t233.5 -98.5q68 0 138 24t70 66v70q0 7 4.5 11.5t10.5 4.5h119q6 0 11 -4.5t5 -11.5zM768 1280q-130 0 -248.5 -51t-204 -136.5t-136.5 -204t-51 -248.5t51 -248.5t136.5 -204t204 -136.5t248.5 -51t248.5 51t204 136.5t136.5 204t51 248.5 t-51 248.5t-136.5 204t-204 136.5t-248.5 51zM1536 640q0 -209 -103 -385.5t-279.5 -279.5t-385.5 -103t-385.5 103t-279.5 279.5t-103 385.5t103 385.5t279.5 279.5t385.5 103t385.5 -103t279.5 -279.5t103 -385.5z" />
<glyph unicode="&#xf1fa;" d="M972 761q0 108 -53.5 169t-147.5 61q-63 0 -124 -30.5t-110 -84.5t-79.5 -137t-30.5 -180q0 -112 53.5 -173t150.5 -61q96 0 176 66.5t122.5 166t42.5 203.5zM1536 640q0 -111 -37 -197t-98.5 -135t-131.5 -74.5t-145 -27.5q-6 0 -15.5 -0.5t-16.5 -0.5q-95 0 -142 53 q-28 33 -33 83q-52 -66 -131.5 -110t-173.5 -44q-161 0 -249.5 95.5t-88.5 269.5q0 157 66 290t179 210.5t246 77.5q87 0 155 -35.5t106 -99.5l2 19l11 56q1 6 5.5 12t9.5 6h118q5 0 13 -11q5 -5 3 -16l-120 -614q-5 -24 -5 -48q0 -39 12.5 -52t44.5 -13q28 1 57 5.5t73 24 t77 50t57 89.5t24 137q0 292 -174 466t-466 174q-130 0 -248.5 -51t-204 -136.5t-136.5 -204t-51 -248.5t51 -248.5t136.5 -204t204 -136.5t248.5 -51q228 0 405 144q11 9 24 8t21 -12l41 -49q8 -12 7 -24q-2 -13 -12 -22q-102 -83 -227.5 -128t-258.5 -45q-156 0 -298 61 t-245 164t-164 245t-61 298t61 298t164 245t245 164t298 61q344 0 556 -212t212 -556z" />
<glyph unicode="&#xf1fb;" horiz-adv-x="1792" d="M1698 1442q94 -94 94 -226.5t-94 -225.5l-225 -223l104 -104q10 -10 10 -23t-10 -23l-210 -210q-10 -10 -23 -10t-23 10l-105 105l-603 -603q-37 -37 -90 -37h-203l-256 -128l-64 64l128 256v203q0 53 37 90l603 603l-105 105q-10 10 -10 23t10 23l210 210q10 10 23 10 t23 -10l104 -104l223 225q93 94 225.5 94t226.5 -94zM512 64l576 576l-192 192l-576 -576v-192h192z" />
<glyph unicode="&#xf1fc;" horiz-adv-x="1792" d="M1615 1536q70 0 122.5 -46.5t52.5 -116.5q0 -63 -45 -151q-332 -629 -465 -752q-97 -91 -218 -91q-126 0 -216.5 92.5t-90.5 219.5q0 128 92 212l638 579q59 54 130 54zM706 502q39 -76 106.5 -130t150.5 -76l1 -71q4 -213 -129.5 -347t-348.5 -134q-123 0 -218 46.5 t-152.5 127.5t-86.5 183t-29 220q7 -5 41 -30t62 -44.5t59 -36.5t46 -17q41 0 55 37q25 66 57.5 112.5t69.5 76t88 47.5t103 25.5t125 10.5z" />
<glyph unicode="&#xf1fd;" horiz-adv-x="1792" d="M1792 128v-384h-1792v384q45 0 85 14t59 27.5t47 37.5q30 27 51.5 38t56.5 11t55.5 -11t52.5 -38q29 -25 47 -38t58 -27t86 -14q45 0 85 14.5t58 27t48 37.5q21 19 32.5 27t31 15t43.5 7q35 0 56.5 -11t51.5 -38q28 -24 47 -37.5t59 -27.5t85 -14t85 14t59 27.5t47 37.5 q30 27 51.5 38t56.5 11q34 0 55.5 -11t51.5 -38q28 -24 47 -37.5t59 -27.5t85 -14zM1792 448v-192q-35 0 -55.5 11t-52.5 38q-29 25 -47 38t-58 27t-85 14q-46 0 -86 -14t-58 -27t-47 -38q-22 -19 -33 -27t-31 -15t-44 -7q-35 0 -56.5 11t-51.5 38q-29 25 -47 38t-58 27 t-86 14q-45 0 -85 -14.5t-58 -27t-48 -37.5q-21 -19 -32.5 -27t-31 -15t-43.5 -7q-35 0 -56.5 11t-51.5 38q-28 24 -47 37.5t-59 27.5t-85 14q-46 0 -86 -14t-58 -27t-47 -38q-30 -27 -51.5 -38t-56.5 -11v192q0 80 56 136t136 56h64v448h256v-448h256v448h256v-448h256v448 h256v-448h64q80 0 136 -56t56 -136zM512 1312q0 -77 -36 -118.5t-92 -41.5q-53 0 -90.5 37.5t-37.5 90.5q0 29 9.5 51t23.5 34t31 28t31 31.5t23.5 44.5t9.5 67q38 0 83 -74t45 -150zM1024 1312q0 -77 -36 -118.5t-92 -41.5q-53 0 -90.5 37.5t-37.5 90.5q0 29 9.5 51 t23.5 34t31 28t31 31.5t23.5 44.5t9.5 67q38 0 83 -74t45 -150zM1536 1312q0 -77 -36 -118.5t-92 -41.5q-53 0 -90.5 37.5t-37.5 90.5q0 29 9.5 51t23.5 34t31 28t31 31.5t23.5 44.5t9.5 67q38 0 83 -74t45 -150z" />
<glyph unicode="&#xf1fe;" horiz-adv-x="2048" d="M2048 0v-128h-2048v1536h128v-1408h1920zM1664 1024l256 -896h-1664v576l448 576l576 -576z" />
<glyph unicode="&#xf200;" horiz-adv-x="1792" d="M768 646l546 -546q-106 -108 -247.5 -168t-298.5 -60q-209 0 -385.5 103t-279.5 279.5t-103 385.5t103 385.5t279.5 279.5t385.5 103v-762zM955 640h773q0 -157 -60 -298.5t-168 -247.5zM1664 768h-768v768q209 0 385.5 -103t279.5 -279.5t103 -385.5z" />
<glyph unicode="&#xf201;" horiz-adv-x="2048" d="M2048 0v-128h-2048v1536h128v-1408h1920zM1920 1248v-435q0 -21 -19.5 -29.5t-35.5 7.5l-121 121l-633 -633q-10 -10 -23 -10t-23 10l-233 233l-416 -416l-192 192l585 585q10 10 23 10t23 -10l233 -233l464 464l-121 121q-16 16 -7.5 35.5t29.5 19.5h435q14 0 23 -9 t9 -23z" />
<glyph unicode="&#xf202;" horiz-adv-x="1792" d="M1292 832q0 -6 10 -41q10 -29 25 -49.5t41 -34t44 -20t55 -16.5q325 -91 325 -332q0 -146 -105.5 -242.5t-254.5 -96.5q-59 0 -111.5 18.5t-91.5 45.5t-77 74.5t-63 87.5t-53.5 103.5t-43.5 103t-39.5 106.5t-35.5 95q-32 81 -61.5 133.5t-73.5 96.5t-104 64t-142 20 q-96 0 -183 -55.5t-138 -144.5t-51 -185q0 -160 106.5 -279.5t263.5 -119.5q177 0 258 95q56 63 83 116l84 -152q-15 -34 -44 -70l1 -1q-131 -152 -388 -152q-147 0 -269.5 79t-190.5 207.5t-68 274.5q0 105 43.5 206t116 176.5t172 121.5t204.5 46q87 0 159 -19t123.5 -50 t95 -80t72.5 -99t58.5 -117t50.5 -124.5t50 -130.5t55 -127q96 -200 233 -200q81 0 138.5 48.5t57.5 128.5q0 42 -19 72t-50.5 46t-72.5 31.5t-84.5 27t-87.5 34t-81 52t-65 82t-39 122.5q-3 16 -3 33q0 110 87.5 192t198.5 78q78 -3 120.5 -14.5t90.5 -53.5h-1 q12 -11 23 -24.5t26 -36t19 -27.5l-129 -99q-26 49 -54 70v1q-23 21 -97 21q-49 0 -84 -33t-35 -83z" />
<glyph unicode="&#xf203;" d="M1432 484q0 173 -234 239q-35 10 -53 16.5t-38 25t-29 46.5q0 2 -2 8.5t-3 12t-1 7.5q0 36 24.5 59.5t60.5 23.5q54 0 71 -15h-1q20 -15 39 -51l93 71q-39 54 -49 64q-33 29 -67.5 39t-85.5 10q-80 0 -142 -57.5t-62 -137.5q0 -7 2 -23q16 -96 64.5 -140t148.5 -73 q29 -8 49 -15.5t45 -21.5t38.5 -34.5t13.5 -46.5v-5q1 -58 -40.5 -93t-100.5 -35q-97 0 -167 144q-23 47 -51.5 121.5t-48 125.5t-54 110.5t-74 95.5t-103.5 60.5t-147 24.5q-101 0 -192 -56t-144 -148t-50 -192v-1q4 -108 50.5 -199t133.5 -147.5t196 -56.5q186 0 279 110 q20 27 31 51l-60 109q-42 -80 -99 -116t-146 -36q-115 0 -191 87t-76 204q0 105 82 189t186 84q112 0 170 -53.5t104 -172.5q8 -21 25.5 -68.5t28.5 -76.5t31.5 -74.5t38.5 -74t45.5 -62.5t55.5 -53.5t66 -33t80 -13.5q107 0 183 69.5t76 174.5zM1536 1120v-960 q0 -119 -84.5 -203.5t-203.5 -84.5h-960q-119 0 -203.5 84.5t-84.5 203.5v960q0 119 84.5 203.5t203.5 84.5h960q119 0 203.5 -84.5t84.5 -203.5z" />
<glyph unicode="&#xf204;" horiz-adv-x="2048" d="M1152 640q0 104 -40.5 198.5t-109.5 163.5t-163.5 109.5t-198.5 40.5t-198.5 -40.5t-163.5 -109.5t-109.5 -163.5t-40.5 -198.5t40.5 -198.5t109.5 -163.5t163.5 -109.5t198.5 -40.5t198.5 40.5t163.5 109.5t109.5 163.5t40.5 198.5zM1920 640q0 104 -40.5 198.5 t-109.5 163.5t-163.5 109.5t-198.5 40.5h-386q119 -90 188.5 -224t69.5 -288t-69.5 -288t-188.5 -224h386q104 0 198.5 40.5t163.5 109.5t109.5 163.5t40.5 198.5zM2048 640q0 -130 -51 -248.5t-136.5 -204t-204 -136.5t-248.5 -51h-768q-130 0 -248.5 51t-204 136.5 t-136.5 204t-51 248.5t51 248.5t136.5 204t204 136.5t248.5 51h768q130 0 248.5 -51t204 -136.5t136.5 -204t51 -248.5z" />
<glyph unicode="&#xf205;" horiz-adv-x="2048" d="M0 640q0 130 51 248.5t136.5 204t204 136.5t248.5 51h768q130 0 248.5 -51t204 -136.5t136.5 -204t51 -248.5t-51 -248.5t-136.5 -204t-204 -136.5t-248.5 -51h-768q-130 0 -248.5 51t-204 136.5t-136.5 204t-51 248.5zM1408 128q104 0 198.5 40.5t163.5 109.5 t109.5 163.5t40.5 198.5t-40.5 198.5t-109.5 163.5t-163.5 109.5t-198.5 40.5t-198.5 -40.5t-163.5 -109.5t-109.5 -163.5t-40.5 -198.5t40.5 -198.5t109.5 -163.5t163.5 -109.5t198.5 -40.5z" />
<glyph unicode="&#xf206;" horiz-adv-x="2304" d="M762 384h-314q-40 0 -57.5 35t6.5 67l188 251q-65 31 -137 31q-132 0 -226 -94t-94 -226t94 -226t226 -94q115 0 203 72.5t111 183.5zM576 512h186q-18 85 -75 148zM1056 512l288 384h-480l-99 -132q105 -103 126 -252h165zM2176 448q0 132 -94 226t-226 94 q-60 0 -121 -24l174 -260q15 -23 10 -49t-27 -40q-15 -11 -36 -11q-35 0 -53 29l-174 260q-93 -95 -93 -225q0 -132 94 -226t226 -94t226 94t94 226zM2304 448q0 -185 -131.5 -316.5t-316.5 -131.5t-316.5 131.5t-131.5 316.5q0 97 39.5 183.5t109.5 149.5l-65 98l-353 -469 q-18 -26 -51 -26h-197q-23 -164 -149 -274t-294 -110q-185 0 -316.5 131.5t-131.5 316.5t131.5 316.5t316.5 131.5q114 0 215 -55l137 183h-224q-26 0 -45 19t-19 45t19 45t45 19h384v-128h435l-85 128h-222q-26 0 -45 19t-19 45t19 45t45 19h256q33 0 53 -28l267 -400 q91 44 192 44q185 0 316.5 -131.5t131.5 -316.5z" />
<glyph unicode="&#xf207;" d="M384 320q0 53 -37.5 90.5t-90.5 37.5t-90.5 -37.5t-37.5 -90.5t37.5 -90.5t90.5 -37.5t90.5 37.5t37.5 90.5zM1408 320q0 53 -37.5 90.5t-90.5 37.5t-90.5 -37.5t-37.5 -90.5t37.5 -90.5t90.5 -37.5t90.5 37.5t37.5 90.5zM1362 716l-72 384q-5 23 -22.5 37.5t-40.5 14.5 h-918q-23 0 -40.5 -14.5t-22.5 -37.5l-72 -384q-5 -30 14 -53t49 -23h1062q30 0 49 23t14 53zM1136 1328q0 20 -14 34t-34 14h-640q-20 0 -34 -14t-14 -34t14 -34t34 -14h640q20 0 34 14t14 34zM1536 603v-603h-128v-128q0 -53 -37.5 -90.5t-90.5 -37.5t-90.5 37.5 t-37.5 90.5v128h-768v-128q0 -53 -37.5 -90.5t-90.5 -37.5t-90.5 37.5t-37.5 90.5v128h-128v603q0 112 25 223l103 454q9 78 97.5 137t230 89t312.5 30t312.5 -30t230 -89t97.5 -137l105 -454q23 -102 23 -223z" />
<glyph unicode="&#xf208;" horiz-adv-x="2048" d="M1463 704q0 -35 -25 -60.5t-61 -25.5h-702q-36 0 -61 25.5t-25 60.5t25 60.5t61 25.5h702q36 0 61 -25.5t25 -60.5zM1677 704q0 86 -23 170h-982q-36 0 -61 25t-25 60q0 36 25 61t61 25h908q-88 143 -235 227t-320 84q-177 0 -327.5 -87.5t-238 -237.5t-87.5 -327 q0 -86 23 -170h982q36 0 61 -25t25 -60q0 -36 -25 -61t-61 -25h-908q88 -143 235.5 -227t320.5 -84q132 0 253 51.5t208 139t139 208t52 253.5zM2048 959q0 -35 -25 -60t-61 -25h-131q17 -85 17 -170q0 -167 -65.5 -319.5t-175.5 -263t-262.5 -176t-319.5 -65.5 q-246 0 -448.5 133t-301.5 350h-189q-36 0 -61 25t-25 61q0 35 25 60t61 25h132q-17 85 -17 170q0 167 65.5 319.5t175.5 263t262.5 176t320.5 65.5q245 0 447.5 -133t301.5 -350h188q36 0 61 -25t25 -61z" />
<glyph unicode="&#xf209;" horiz-adv-x="1280" d="M953 1158l-114 -328l117 -21q165 451 165 518q0 56 -38 56q-57 0 -130 -225zM654 471l33 -88q37 42 71 67l-33 5.5t-38.5 7t-32.5 8.5zM362 1367q0 -98 159 -521q18 10 49 10q15 0 75 -5l-121 351q-75 220 -123 220q-19 0 -29 -17.5t-10 -37.5zM283 608q0 -36 51.5 -119 t117.5 -153t100 -70q14 0 25.5 13t11.5 27q0 24 -32 102q-13 32 -32 72t-47.5 89t-61.5 81t-62 32q-20 0 -45.5 -27t-25.5 -47zM125 273q0 -41 25 -104q59 -145 183.5 -227t281.5 -82q227 0 382 170q152 169 152 427q0 43 -1 67t-11.5 62t-30.5 56q-56 49 -211.5 75.5 t-270.5 26.5q-37 0 -49 -11q-12 -5 -12 -35q0 -34 21.5 -60t55.5 -40t77.5 -23.5t87.5 -11.5t85 -4t70 0h23q24 0 40 -19q15 -19 19 -55q-28 -28 -96 -54q-61 -22 -93 -46q-64 -46 -108.5 -114t-44.5 -137q0 -31 18.5 -88.5t18.5 -87.5l-3 -12q-4 -12 -4 -14 q-137 10 -146 216q-8 -2 -41 -2q2 -7 2 -21q0 -53 -40.5 -89.5t-94.5 -36.5q-82 0 -166.5 78t-84.5 159q0 34 33 67q52 -64 60 -76q77 -104 133 -104q12 0 26.5 8.5t14.5 20.5q0 34 -87.5 145t-116.5 111q-43 0 -70 -44.5t-27 -90.5zM11 264q0 101 42.5 163t136.5 88 q-28 74 -28 104q0 62 61 123t122 61q29 0 70 -15q-163 462 -163 567q0 80 41 130.5t119 50.5q131 0 325 -581q6 -17 8 -23q6 16 29 79.5t43.5 118.5t54 127.5t64.5 123t70.5 86.5t76.5 36q71 0 112 -49t41 -122q0 -108 -159 -550q61 -15 100.5 -46t58.5 -78t26 -93.5 t7 -110.5q0 -150 -47 -280t-132 -225t-211 -150t-278 -55q-111 0 -223 42q-149 57 -258 191.5t-109 286.5z" />
<glyph unicode="&#xf20a;" horiz-adv-x="2048" d="M785 528h207q-14 -158 -98.5 -248.5t-214.5 -90.5q-162 0 -254.5 116t-92.5 316q0 194 93 311.5t233 117.5q148 0 232 -87t97 -247h-203q-5 64 -35.5 99t-81.5 35q-57 0 -88.5 -60.5t-31.5 -177.5q0 -48 5 -84t18 -69.5t40 -51.5t66 -18q95 0 109 139zM1497 528h206 q-14 -158 -98 -248.5t-214 -90.5q-162 0 -254.5 116t-92.5 316q0 194 93 311.5t233 117.5q148 0 232 -87t97 -247h-204q-4 64 -35 99t-81 35q-57 0 -88.5 -60.5t-31.5 -177.5q0 -48 5 -84t18 -69.5t39.5 -51.5t65.5 -18q49 0 76.5 38t33.5 101zM1856 647q0 207 -15.5 307 t-60.5 161q-6 8 -13.5 14t-21.5 15t-16 11q-86 63 -697 63q-625 0 -710 -63q-5 -4 -17.5 -11.5t-21 -14t-14.5 -14.5q-45 -60 -60 -159.5t-15 -308.5q0 -208 15 -307.5t60 -160.5q6 -8 15 -15t20.5 -14t17.5 -12q44 -33 239.5 -49t470.5 -16q610 0 697 65q5 4 17 11t20.5 14 t13.5 16q46 60 61 159t15 309zM2048 1408v-1536h-2048v1536h2048z" />
<glyph unicode="&#xf20b;" d="M992 912v-496q0 -14 -9 -23t-23 -9h-160q-14 0 -23 9t-9 23v496q0 112 -80 192t-192 80h-272v-1152q0 -14 -9 -23t-23 -9h-160q-14 0 -23 9t-9 23v1344q0 14 9 23t23 9h464q135 0 249 -66.5t180.5 -180.5t66.5 -249zM1376 1376v-880q0 -135 -66.5 -249t-180.5 -180.5 t-249 -66.5h-464q-14 0 -23 9t-9 23v960q0 14 9 23t23 9h160q14 0 23 -9t9 -23v-768h272q112 0 192 80t80 192v880q0 14 9 23t23 9h160q14 0 23 -9t9 -23z" />
<glyph unicode="&#xf20c;" d="M1311 694v-114q0 -24 -13.5 -38t-37.5 -14h-202q-24 0 -38 14t-14 38v114q0 24 14 38t38 14h202q24 0 37.5 -14t13.5 -38zM821 464v250q0 53 -32.5 85.5t-85.5 32.5h-133q-68 0 -96 -52q-28 52 -96 52h-130q-53 0 -85.5 -32.5t-32.5 -85.5v-250q0 -22 21 -22h55 q22 0 22 22v230q0 24 13.5 38t38.5 14h94q24 0 38 -14t14 -38v-230q0 -22 21 -22h54q22 0 22 22v230q0 24 14 38t38 14h97q24 0 37.5 -14t13.5 -38v-230q0 -22 22 -22h55q21 0 21 22zM1410 560v154q0 53 -33 85.5t-86 32.5h-264q-53 0 -86 -32.5t-33 -85.5v-410 q0 -21 22 -21h55q21 0 21 21v180q31 -42 94 -42h191q53 0 86 32.5t33 85.5zM1536 1176v-1072q0 -96 -68 -164t-164 -68h-1072q-96 0 -164 68t-68 164v1072q0 96 68 164t164 68h1072q96 0 164 -68t68 -164z" />
<glyph unicode="&#xf20d;" d="M915 450h-294l147 551zM1001 128h311l-324 1024h-440l-324 -1024h311l383 314zM1536 1120v-960q0 -118 -85 -203t-203 -85h-960q-118 0 -203 85t-85 203v960q0 118 85 203t203 85h960q118 0 203 -85t85 -203z" />
<glyph unicode="&#xf20e;" horiz-adv-x="2048" d="M2048 641q0 -21 -13 -36.5t-33 -19.5l-205 -356q3 -9 3 -18q0 -20 -12.5 -35.5t-32.5 -19.5l-193 -337q3 -8 3 -16q0 -23 -16.5 -40t-40.5 -17q-25 0 -41 18h-400q-17 -20 -43 -20t-43 20h-399q-17 -20 -43 -20q-23 0 -40 16.5t-17 40.5q0 8 4 20l-193 335 q-20 4 -32.5 19.5t-12.5 35.5q0 9 3 18l-206 356q-20 5 -32.5 20.5t-12.5 35.5q0 21 13.5 36.5t33.5 19.5l199 344q0 1 -0.5 3t-0.5 3q0 36 34 51l209 363q-4 10 -4 18q0 24 17 40.5t40 16.5q26 0 44 -21h396q16 21 43 21t43 -21h398q18 21 44 21q23 0 40 -16.5t17 -40.5 q0 -6 -4 -18l207 -358q23 -1 39 -17.5t16 -38.5q0 -13 -7 -27l187 -324q19 -4 31.5 -19.5t12.5 -35.5zM1063 -158h389l-342 354h-143l-342 -354h360q18 16 39 16t39 -16zM112 654q1 -4 1 -13q0 -10 -2 -15l208 -360q2 0 4.5 -1t5.5 -2.5l5 -2.5l188 199v347l-187 194 q-13 -8 -29 -10zM986 1438h-388l190 -200l554 200h-280q-16 -16 -38 -16t-38 16zM1689 226q1 6 5 11l-64 68l-17 -79h76zM1583 226l22 105l-252 266l-296 -307l63 -64h463zM1495 -142l16 28l65 310h-427l333 -343q8 4 13 5zM578 -158h5l342 354h-373v-335l4 -6q14 -5 22 -13 zM552 226h402l64 66l-309 321l-157 -166v-221zM359 226h163v189l-168 -177q4 -8 5 -12zM358 1051q0 -1 0.5 -2t0.5 -2q0 -16 -8 -29l171 -177v269zM552 1121v-311l153 -157l297 314l-223 236zM556 1425l-4 -8v-264l205 74l-191 201q-6 -2 -10 -3zM1447 1438h-16l-621 -224 l213 -225zM1023 946l-297 -315l311 -319l296 307zM688 634l-136 141v-284zM1038 270l-42 -44h85zM1374 618l238 -251l132 624l-3 5l-1 1zM1718 1018q-8 13 -8 29v2l-216 376q-5 1 -13 5l-437 -463l310 -327zM522 1142v223l-163 -282zM522 196h-163l163 -283v283zM1607 196 l-48 -227l130 227h-82zM1729 266l207 361q-2 10 -2 14q0 1 3 16l-171 296l-129 -612l77 -82q5 3 15 7z" />
<glyph unicode="&#xf210;" d="M0 856q0 131 91.5 226.5t222.5 95.5h742l352 358v-1470q0 -132 -91.5 -227t-222.5 -95h-780q-131 0 -222.5 95t-91.5 227v790zM1232 102l-176 180v425q0 46 -32 79t-78 33h-484q-46 0 -78 -33t-32 -79v-492q0 -46 32.5 -79.5t77.5 -33.5h770z" />
<glyph unicode="&#xf211;" d="M934 1386q-317 -121 -556 -362.5t-358 -560.5q-20 89 -20 176q0 208 102.5 384.5t278.5 279t384 102.5q82 0 169 -19zM1203 1267q93 -65 164 -155q-389 -113 -674.5 -400.5t-396.5 -676.5q-93 72 -155 162q112 386 395 671t667 399zM470 -67q115 356 379.5 622t619.5 384 q40 -92 54 -195q-292 -120 -516 -345t-343 -518q-103 14 -194 52zM1536 -125q-193 50 -367 115q-135 -84 -290 -107q109 205 274 370.5t369 275.5q-21 -152 -101 -284q65 -175 115 -370z" />
<glyph unicode="&#xf212;" horiz-adv-x="2048" d="M1893 1144l155 -1272q-131 0 -257 57q-200 91 -393 91q-226 0 -374 -148q-148 148 -374 148q-193 0 -393 -91q-128 -57 -252 -57h-5l155 1272q224 127 482 127q233 0 387 -106q154 106 387 106q258 0 482 -127zM1398 157q129 0 232 -28.5t260 -93.5l-124 1021 q-171 78 -368 78q-224 0 -374 -141q-150 141 -374 141q-197 0 -368 -78l-124 -1021q105 43 165.5 65t148.5 39.5t178 17.5q202 0 374 -108q172 108 374 108zM1438 191l-55 907q-211 -4 -359 -155q-152 155 -374 155q-176 0 -336 -66l-114 -941q124 51 228.5 76t221.5 25 q209 0 374 -102q172 107 374 102z" />
<glyph unicode="&#xf213;" horiz-adv-x="2048" d="M1500 165v733q0 21 -15 36t-35 15h-93q-20 0 -35 -15t-15 -36v-733q0 -20 15 -35t35 -15h93q20 0 35 15t15 35zM1216 165v531q0 20 -15 35t-35 15h-101q-20 0 -35 -15t-15 -35v-531q0 -20 15 -35t35 -15h101q20 0 35 15t15 35zM924 165v429q0 20 -15 35t-35 15h-101 q-20 0 -35 -15t-15 -35v-429q0 -20 15 -35t35 -15h101q20 0 35 15t15 35zM632 165v362q0 20 -15 35t-35 15h-101q-20 0 -35 -15t-15 -35v-362q0 -20 15 -35t35 -15h101q20 0 35 15t15 35zM2048 311q0 -166 -118 -284t-284 -118h-1244q-166 0 -284 118t-118 284 q0 116 63 214.5t168 148.5q-10 34 -10 73q0 113 80.5 193.5t193.5 80.5q102 0 180 -67q45 183 194 300t338 117q149 0 275 -73.5t199.5 -199.5t73.5 -275q0 -66 -14 -122q135 -33 221 -142.5t86 -247.5z" />
<glyph unicode="&#xf214;" d="M0 1536h1536v-1392l-776 -338l-760 338v1392zM1436 209v926h-1336v-926l661 -294zM1436 1235v201h-1336v-201h1336zM181 937v-115h-37v115h37zM181 789v-115h-37v115h37zM181 641v-115h-37v115h37zM181 493v-115h-37v115h37zM181 345v-115h-37v115h37zM207 202l15 34 l105 -47l-15 -33zM343 142l15 34l105 -46l-15 -34zM478 82l15 34l105 -46l-15 -34zM614 23l15 33l104 -46l-15 -34zM797 10l105 46l15 -33l-105 -47zM932 70l105 46l15 -34l-105 -46zM1068 130l105 46l15 -34l-105 -46zM1203 189l105 47l15 -34l-105 -46zM259 1389v-36h-114 v36h114zM421 1389v-36h-115v36h115zM583 1389v-36h-115v36h115zM744 1389v-36h-114v36h114zM906 1389v-36h-114v36h114zM1068 1389v-36h-115v36h115zM1230 1389v-36h-115v36h115zM1391 1389v-36h-114v36h114zM181 1049v-79h-37v115h115v-36h-78zM421 1085v-36h-115v36h115z M583 1085v-36h-115v36h115zM744 1085v-36h-114v36h114zM906 1085v-36h-114v36h114zM1068 1085v-36h-115v36h115zM1230 1085v-36h-115v36h115zM1355 970v79h-78v36h115v-115h-37zM1355 822v115h37v-115h-37zM1355 674v115h37v-115h-37zM1355 526v115h37v-115h-37zM1355 378 v115h37v-115h-37zM1355 230v115h37v-115h-37zM760 265q-129 0 -221 91.5t-92 221.5q0 129 92 221t221 92q130 0 221.5 -92t91.5 -221q0 -130 -91.5 -221.5t-221.5 -91.5zM595 646q0 -36 19.5 -56.5t49.5 -25t64 -7t64 -2t49.5 -9t19.5 -30.5q0 -49 -112 -49q-97 0 -123 51 h-3l-31 -63q67 -42 162 -42q29 0 56.5 5t55.5 16t45.5 33t17.5 53q0 46 -27.5 69.5t-67.5 27t-79.5 3t-67 5t-27.5 25.5q0 21 20.5 33t40.5 15t41 3q34 0 70.5 -11t51.5 -34h3l30 58q-3 1 -21 8.5t-22.5 9t-19.5 7t-22 7t-20 4.5t-24 4t-23 1q-29 0 -56.5 -5t-54 -16.5 t-43 -34t-16.5 -53.5z" />
<glyph unicode="&#xf215;" horiz-adv-x="2048" d="M863 504q0 112 -79.5 191.5t-191.5 79.5t-191 -79.5t-79 -191.5t79 -191t191 -79t191.5 79t79.5 191zM1726 505q0 112 -79 191t-191 79t-191.5 -79t-79.5 -191q0 -113 79.5 -192t191.5 -79t191 79.5t79 191.5zM2048 1314v-1348q0 -44 -31.5 -75.5t-76.5 -31.5h-1832 q-45 0 -76.5 31.5t-31.5 75.5v1348q0 44 31.5 75.5t76.5 31.5h431q44 0 76 -31.5t32 -75.5v-161h754v161q0 44 32 75.5t76 31.5h431q45 0 76.5 -31.5t31.5 -75.5z" />
<glyph unicode="&#xf216;" horiz-adv-x="2048" d="M1430 953zM1690 749q148 0 253 -98.5t105 -244.5q0 -157 -109 -261.5t-267 -104.5q-85 0 -162 27.5t-138 73.5t-118 106t-109 126.5t-103.5 132.5t-108.5 126t-117 106t-136 73.5t-159 27.5q-154 0 -251.5 -91.5t-97.5 -244.5q0 -157 104 -250t263 -93q100 0 208 37.5 t193 98.5q5 4 21 18.5t30 24t22 9.5q14 0 24.5 -10.5t10.5 -24.5q0 -24 -60 -77q-101 -88 -234.5 -142t-260.5 -54q-133 0 -245.5 58t-180 165t-67.5 241q0 205 141.5 341t347.5 136q120 0 226.5 -43.5t185.5 -113t151.5 -153t139 -167.5t133.5 -153.5t149.5 -113 t172.5 -43.5q102 0 168.5 61.5t66.5 162.5q0 95 -64.5 159t-159.5 64q-30 0 -81.5 -18.5t-68.5 -18.5q-20 0 -35.5 15t-15.5 35q0 18 8.5 57t8.5 59q0 159 -107.5 263t-266.5 104q-58 0 -111.5 -18.5t-84 -40.5t-55.5 -40.5t-33 -18.5q-15 0 -25.5 10.5t-10.5 25.5 q0 19 25 46q59 67 147 103.5t182 36.5q191 0 318 -125.5t127 -315.5q0 -37 -4 -66q57 15 115 15z" />
<glyph unicode="&#xf23d;" horiz-adv-x="2304" d="M1524 -25q0 -68 -48 -116t-116 -48t-116.5 48t-48.5 116t48.5 116.5t116.5 48.5t116 -48.5t48 -116.5zM775 -25q0 -68 -48.5 -116t-116.5 -48t-116 48t-48 116t48 116.5t116 48.5t116.5 -48.5t48.5 -116.5zM0 1469q57 -60 110.5 -104.5t121 -82t136 -63t166 -45.5 t200 -31.5t250 -18.5t304 -9.5t372.5 -2.5q139 0 244.5 -5t181 -16.5t124 -27.5t71 -39.5t24 -51.5t-19.5 -64t-56.5 -76.5t-89.5 -91t-116 -104.5t-139 -119q-185 -157 -286 -247q29 51 76.5 109t94 105.5t94.5 98.5t83 91.5t54 80.5t13 70t-45.5 55.5t-116.5 41t-204 23.5 t-304 5q-168 -2 -314 6t-256 23t-204.5 41t-159.5 51.5t-122.5 62.5t-91.5 66.5t-68 71.5t-50.5 69.5t-40 68t-36.5 59.5z" />
<glyph unicode="&#xf23e;" horiz-adv-x="1792" d="M896 1472q-169 0 -323 -66t-265.5 -177.5t-177.5 -265.5t-66 -323t66 -323t177.5 -265.5t265.5 -177.5t323 -66t323 66t265.5 177.5t177.5 265.5t66 323t-66 323t-177.5 265.5t-265.5 177.5t-323 66zM896 1536q182 0 348 -71t286 -191t191 -286t71 -348t-71 -348 t-191 -286t-286 -191t-348 -71t-348 71t-286 191t-191 286t-71 348t71 348t191 286t286 191t348 71zM496 704q16 0 16 -16v-480q0 -16 -16 -16h-32q-16 0 -16 16v480q0 16 16 16h32zM896 640q53 0 90.5 -37.5t37.5 -90.5q0 -35 -17.5 -64t-46.5 -46v-114q0 -14 -9 -23 t-23 -9h-64q-14 0 -23 9t-9 23v114q-29 17 -46.5 46t-17.5 64q0 53 37.5 90.5t90.5 37.5zM896 1408q209 0 385.5 -103t279.5 -279.5t103 -385.5t-103 -385.5t-279.5 -279.5t-385.5 -103t-385.5 103t-279.5 279.5t-103 385.5t103 385.5t279.5 279.5t385.5 103zM544 928v-96 q0 -14 9 -23t23 -9h64q14 0 23 9t9 23v96q0 93 65.5 158.5t158.5 65.5t158.5 -65.5t65.5 -158.5v-96q0 -14 9 -23t23 -9h64q14 0 23 9t9 23v96q0 146 -103 249t-249 103t-249 -103t-103 -249zM1408 192v512q0 26 -19 45t-45 19h-896q-26 0 -45 -19t-19 -45v-512 q0 -26 19 -45t45 -19h896q26 0 45 19t19 45z" />
<glyph unicode="&#xf240;" horiz-adv-x="2304" d="M1920 1024v-768h-1664v768h1664zM2048 448h128v384h-128v288q0 14 -9 23t-23 9h-1856q-14 0 -23 -9t-9 -23v-960q0 -14 9 -23t23 -9h1856q14 0 23 9t9 23v288zM2304 832v-384q0 -53 -37.5 -90.5t-90.5 -37.5v-160q0 -66 -47 -113t-113 -47h-1856q-66 0 -113 47t-47 113 v960q0 66 47 113t113 47h1856q66 0 113 -47t47 -113v-160q53 0 90.5 -37.5t37.5 -90.5z" />
<glyph unicode="&#xf241;" horiz-adv-x="2304" d="M256 256v768h1280v-768h-1280zM2176 960q53 0 90.5 -37.5t37.5 -90.5v-384q0 -53 -37.5 -90.5t-90.5 -37.5v-160q0 -66 -47 -113t-113 -47h-1856q-66 0 -113 47t-47 113v960q0 66 47 113t113 47h1856q66 0 113 -47t47 -113v-160zM2176 448v384h-128v288q0 14 -9 23t-23 9 h-1856q-14 0 -23 -9t-9 -23v-960q0 -14 9 -23t23 -9h1856q14 0 23 9t9 23v288h128z" />
<glyph unicode="&#xf242;" horiz-adv-x="2304" d="M256 256v768h896v-768h-896zM2176 960q53 0 90.5 -37.5t37.5 -90.5v-384q0 -53 -37.5 -90.5t-90.5 -37.5v-160q0 -66 -47 -113t-113 -47h-1856q-66 0 -113 47t-47 113v960q0 66 47 113t113 47h1856q66 0 113 -47t47 -113v-160zM2176 448v384h-128v288q0 14 -9 23t-23 9 h-1856q-14 0 -23 -9t-9 -23v-960q0 -14 9 -23t23 -9h1856q14 0 23 9t9 23v288h128z" />
<glyph unicode="&#xf294;" horiz-adv-x="1024" d="M596 113l173 172l-173 172v-344zM596 823l173 172l-173 172v-344zM628 640l356 -356l-539 -540v711l-297 -296l-108 108l372 373l-372 373l108 108l297 -296v711l539 -540z" />
<glyph unicode="&#xf295;" d="M1280 256q0 52 -38 90t-90 38t-90 -38t-38 -90t38 -90t90 -38t90 38t38 90zM512 1024q0 52 -38 90t-90 38t-90 -38t-38 -90t38 -90t90 -38t90 38t38 90zM1536 256q0 -159 -112.5 -271.5t-271.5 -112.5t-271.5 112.5t-112.5 271.5t112.5 271.5t271.5 112.5t271.5 -112.5 t112.5 -271.5zM1440 1344q0 -20 -13 -38l-1056 -1408q-19 -26 -51 -26h-160q-26 0 -45 19t-19 45q0 20 13 38l1056 1408q19 26 51 26h160q26 0 45 -19t19 -45zM768 1024q0 -159 -112.5 -271.5t-271.5 -112.5t-271.5 112.5t-112.5 271.5t112.5 271.5t271.5 112.5 t271.5 -112.5t112.5 -271.5z" />
<glyph unicode="&#xf296;" horiz-adv-x="1792" d="M104 830l792 -1015l-868 630q-18 13 -25 34.5t0 42.5l101 308v0zM566 830h660l-330 -1015v0zM368 1442l198 -612h-462l198 612q8 23 33 23t33 -23zM1688 830l101 -308q7 -21 0 -42.5t-25 -34.5l-868 -630l792 1015v0zM1688 830h-462l198 612q8 23 33 23t33 -23z" />
<glyph unicode="&#xf297;" horiz-adv-x="1792" d="M384 704h160v224h-160v-224zM1221 372v92q-104 -36 -243 -38q-135 -1 -259.5 46.5t-220.5 122.5l1 -96q88 -80 212 -128.5t272 -47.5q129 0 238 49zM640 704h640v224h-640v-224zM1792 736q0 -187 -99 -352q89 -102 89 -229q0 -157 -129.5 -268t-313.5 -111 q-122 0 -225 52.5t-161 140.5q-19 -1 -57 -1t-57 1q-58 -88 -161 -140.5t-225 -52.5q-184 0 -313.5 111t-129.5 268q0 127 89 229q-99 165 -99 352q0 209 120 385.5t326.5 279.5t449.5 103t449.5 -103t326.5 -279.5t120 -385.5z" />
<glyph unicode="&#xf298;" d="M515 625v-128h-252v128h252zM515 880v-127h-252v127h252zM1273 369v-128h-341v128h341zM1273 625v-128h-672v128h672zM1273 880v-127h-672v127h672zM1408 20v1240q0 8 -6 14t-14 6h-32l-378 -256l-210 171l-210 -171l-378 256h-32q-8 0 -14 -6t-6 -14v-1240q0 -8 6 -14 t14 -6h1240q8 0 14 6t6 14zM553 1130l185 150h-406zM983 1130l221 150h-406zM1536 1260v-1240q0 -62 -43 -105t-105 -43h-1240q-62 0 -105 43t-43 105v1240q0 62 43 105t105 43h1240q62 0 105 -43t43 -105z" />
<glyph unicode="&#xf299;" horiz-adv-x="1792" d="M896 720q-104 196 -160 278q-139 202 -347 318q-34 19 -70 36q-89 40 -94 32t34 -38l39 -31q62 -43 112.5 -93.5t94.5 -116.5t70.5 -113t70.5 -131q9 -17 13 -25q44 -84 84 -153t98 -154t115.5 -150t131 -123.5t148.5 -90.5q153 -66 154 -60q1 3 -49 37q-53 36 -81 57 q-77 58 -179 211t-185 310zM549 177q-76 60 -132.5 125t-98 143.5t-71 154.5t-58.5 186t-52 209t-60.5 252t-76.5 289q273 0 497.5 -36t379 -92t271 -144.5t185.5 -172.5t110 -198.5t56 -199.5t12.5 -198.5t-9.5 -173t-20 -143.5t-13 -107l323 -327h-104l-281 285 q-22 -2 -91.5 -14t-121.5 -19t-138 -6t-160.5 17t-167.5 59t-179 111z" />
<glyph unicode="&#xf29a;" horiz-adv-x="1792" d="M1374 879q-6 26 -28.5 39.5t-48.5 7.5q-261 -62 -401 -62t-401 62q-26 6 -48.5 -7.5t-28.5 -39.5t7.5 -48.5t39.5 -28.5q194 -46 303 -58q-2 -158 -15.5 -269t-26.5 -155.5t-41 -115.5l-9 -21q-10 -25 1 -49t36 -34q9 -4 23 -4q44 0 60 41l8 20q54 139 71 259h42 q17 -120 71 -259l8 -20q16 -41 60 -41q14 0 23 4q25 10 36 34t1 49l-9 21q-28 71 -41 115.5t-26.5 155.5t-15.5 269q109 12 303 58q26 6 39.5 28.5t7.5 48.5zM1024 1024q0 53 -37.5 90.5t-90.5 37.5t-90.5 -37.5t-37.5 -90.5t37.5 -90.5t90.5 -37.5t90.5 37.5t37.5 90.5z M1600 640q0 -143 -55.5 -273.5t-150 -225t-225 -150t-273.5 -55.5t-273.5 55.5t-225 150t-150 225t-55.5 273.5t55.5 273.5t150 225t225 150t273.5 55.5t273.5 -55.5t225 -150t150 -225t55.5 -273.5zM896 1408q-156 0 -298 -61t-245 -164t-164 -245t-61 -298t61 -298 t164 -245t245 -164t298 -61t298 61t245 164t164 245t61 298t-61 298t-164 245t-245 164t-298 61zM1792 640q0 -182 -71 -348t-191 -286t-286 -191t-348 -71t-348 71t-286 191t-191 286t-71 348t71 348t191 286t286 191t348 71t348 -71t286 -191t191 -286t71 -348z" />
<glyph unicode="&#xf29b;" d="M1438 723q34 -35 29 -82l-44 -551q-4 -42 -34.5 -70t-71.5 -28q-6 0 -9 1q-44 3 -72.5 36.5t-25.5 77.5l35 429l-143 -8q55 -113 55 -240q0 -216 -148 -372l-137 137q91 101 91 235q0 145 -102.5 248t-247.5 103q-134 0 -236 -92l-137 138q120 114 284 141l264 300 l-149 87l-181 -161q-33 -30 -77 -27.5t-73 35.5t-26.5 77t34.5 73l239 213q26 23 60 26.5t64 -14.5l488 -283q36 -21 48 -68q17 -67 -26 -117l-205 -232l371 20q49 3 83 -32zM1240 1180q-74 0 -126 52t-52 126t52 126t126 52t126.5 -52t52.5 -126t-52.5 -126t-126.5 -52z M613 -62q106 0 196 61l139 -139q-146 -116 -335 -116q-148 0 -273.5 73t-198.5 198t-73 273q0 188 116 336l139 -139q-60 -88 -60 -197q0 -145 102.5 -247.5t247.5 -102.5z" />
<glyph unicode="&#xf29c;" d="M880 336v-160q0 -14 -9 -23t-23 -9h-160q-14 0 -23 9t-9 23v160q0 14 9 23t23 9h160q14 0 23 -9t9 -23zM1136 832q0 -50 -15 -90t-45.5 -69t-52 -44t-59.5 -36q-32 -18 -46.5 -28t-26 -24t-11.5 -29v-32q0 -14 -9 -23t-23 -9h-160q-14 0 -23 9t-9 23v68q0 35 10.5 64.5 t24 47.5t39 35.5t41 25.5t44.5 21q53 25 75 43t22 49q0 42 -43.5 71.5t-95.5 29.5q-56 0 -95 -27q-29 -20 -80 -83q-9 -12 -25 -12q-11 0 -19 6l-108 82q-10 7 -12 20t5 23q122 192 349 192q129 0 238.5 -89.5t109.5 -214.5zM768 1280q-130 0 -248.5 -51t-204 -136.5 t-136.5 -204t-51 -248.5t51 -248.5t136.5 -204t204 -136.5t248.5 -51t248.5 51t204 136.5t136.5 204t51 248.5t-51 248.5t-136.5 204t-204 136.5t-248.5 51zM1536 640q0 -209 -103 -385.5t-279.5 -279.5t-385.5 -103t-385.5 103t-279.5 279.5t-103 385.5t103 385.5 t279.5 279.5t385.5 103t385.5 -103t279.5 -279.5t103 -385.5z" />
<glyph unicode="&#xf29d;" horiz-adv-x="1408" d="M366 1225q-64 0 -110 45.5t-46 110.5q0 64 46 109.5t110 45.5t109.5 -45.5t45.5 -109.5q0 -65 -45.5 -110.5t-109.5 -45.5zM917 583q0 -50 -30 -67.5t-63.5 -6.5t-47.5 34l-367 438q-7 12 -14 15.5t-11 1.5l-3 -3q-7 -8 4 -21l122 -139l1 -354l-161 -457 q-67 -192 -92 -234q-16 -26 -28 -32q-50 -26 -103 -1q-29 13 -41.5 43t-9.5 57q2 17 197 618l5 416l-85 -164l35 -222q4 -24 -1 -42t-14 -27.5t-19 -16t-17 -7.5l-7 -2q-19 -3 -34.5 3t-24 16t-14 22t-7.5 19.5t-2 9.5l-46 299l211 381q23 34 113 34q75 0 107 -40l424 -521 q7 -5 14 -17l3 -3l-1 -1q7 -13 7 -29zM514 433q43 -113 88.5 -225t69.5 -168l24 -55q36 -93 42 -125q11 -70 -36 -97q-35 -22 -66 -16t-51 22t-29 35h-1q-6 16 -8 25l-124 351zM1338 -159q31 -49 31 -57q0 -5 -3 -7q-9 -5 -14.5 0.5t-15.5 26t-16 30.5q-114 172 -423 661 q3 -1 7 1t7 4l3 2q11 9 11 17z" />
<glyph unicode="&#xf2ae;" horiz-adv-x="2304" d="M2304 1536q-69 -46 -125 -92t-89 -81t-59.5 -71.5t-37.5 -57.5t-22 -44.5t-14 -29.5q-10 -18 -35.5 -136.5t-48.5 -164.5q-15 -29 -50 -60.5t-67.5 -50.5t-72.5 -41t-48 -28q-47 -31 -151 -231q-341 14 -630 -158q-92 -53 -303 -179q47 16 86 31t55 22l15 7 q71 27 163 64.5t133.5 53.5t108 34.5t142.5 31.5q186 31 465 -7q1 0 10 -3q11 -6 14 -17t-3 -22l-194 -345q-15 -29 -47 -22q-128 24 -354 24q-146 0 -402 -44.5t-392 -46.5q-82 -1 -149 13t-107 37t-61 40t-33 34l-1 1v2q0 6 6 6q138 0 371 55q192 366 374.5 524t383.5 158 q5 0 14.5 -0.5t38 -5t55 -12t61.5 -24.5t63 -39.5t54 -59t40 -82.5l102 177q2 4 21 42.5t44.5 86.5t61 109.5t84 133.5t100.5 137q66 82 128 141.5t121.5 96.5t92.5 53.5t88 39.5z" />
<glyph unicode="&#xf2b0;" d="M1322 640q0 -45 -5 -76l-236 14l224 -78q-19 -73 -58 -141l-214 103l177 -158q-44 -61 -107 -108l-157 178l103 -215q-61 -37 -140 -59l-79 228l14 -240q-38 -6 -76 -6t-76 6l14 238l-78 -226q-74 19 -140 59l103 215l-157 -178q-59 43 -108 108l178 158l-214 -104 q-39 69 -58 141l224 79l-237 -14q-5 42 -5 76q0 35 5 77l238 -14l-225 79q19 73 58 140l214 -104l-177 159q46 61 107 108l158 -178l-103 215q67 39 140 58l77 -224l-13 236q36 6 75 6q38 0 76 -6l-14 -237l78 225q74 -19 140 -59l-103 -214l158 178q61 -47 107 -108 l-177 -159l213 104q37 -62 58 -141l-224 -78l237 14q5 -31 5 -77zM1352 640q0 160 -78.5 295.5t-213 214t-292.5 78.5q-119 0 -227 -46.5t-186.5 -125t-124.5 -187.5t-46 -229q0 -119 46 -228t124.5 -187.5t186.5 -125t227 -46.5q158 0 292.5 78.5t213 214t78.5 294.5z M1425 1023v-766l-657 -383l-657 383v766l657 383zM768 -183l708 412v823l-708 411l-708 -411v-823zM1536 1088v-896l-768 -448l-768 448v896l768 448z" />
<glyph unicode="&#xf2b1;" horiz-adv-x="1664" d="M339 1318h691l-26 -72h-665q-110 0 -188.5 -79t-78.5 -189v-771q0 -95 60.5 -169.5t153.5 -93.5q23 -5 98 -5v-72h-45q-140 0 -239.5 100t-99.5 240v771q0 140 99.5 240t239.5 100zM1190 1536h247l-482 -1294q-23 -61 -40.5 -103.5t-45 -98t-54 -93.5t-64.5 -78.5 t-79.5 -65t-95.5 -41t-116 -18.5v195q163 26 220 182q20 52 20 105q0 54 -20 106l-285 733h228l187 -585zM1664 978v-1111h-795q37 55 45 73h678v1038q0 85 -49.5 155t-129.5 99l25 67q101 -34 163.5 -123.5t62.5 -197.5z" />
<glyph unicode="&#xf2b2;" horiz-adv-x="1792" d="M852 1227q0 -29 -17 -52.5t-45 -23.5t-45 23.5t-17 52.5t17 52.5t45 23.5t45 -23.5t17 -52.5zM688 -149v114q0 30 -20.5 51.5t-50.5 21.5t-50 -21.5t-20 -51.5v-114q0 -30 20.5 -52t49.5 -22q30 0 50.5 22t20.5 52zM860 -149v114q0 30 -20 51.5t-50 21.5t-50.5 -21.5 t-20.5 -51.5v-114q0 -30 20.5 -52t50.5 -22q29 0 49.5 22t20.5 52zM1034 -149v114q0 30 -20.5 51.5t-50.5 21.5t-50.5 -21.5t-20.5 -51.5v-114q0 -30 20.5 -52t50.5 -22t50.5 22t20.5 52zM1208 -149v114q0 30 -20.5 51.5t-50.5 21.5t-50.5 -21.5t-20.5 -51.5v-114 q0 -30 20.5 -52t50.5 -22t50.5 22t20.5 52zM1476 535q-84 -160 -232 -259.5t-323 -99.5q-123 0 -229.5 51.5t-178.5 137t-113 197.5t-41 232q0 88 21 174q-104 -175 -104 -390q0 -162 65 -312t185 -251q30 57 91 57q56 0 86 -50q32 50 87 50q56 0 86 -50q32 50 87 50t87 -50 q30 50 86 50q28 0 52.5 -15.5t37.5 -40.5q112 94 177 231.5t73 287.5zM1326 564q0 75 -72 75q-17 0 -47 -6q-95 -19 -149 -19q-226 0 -226 243q0 86 30 204q-83 -127 -83 -275q0 -150 89 -260.5t235 -110.5q111 0 210 70q13 48 13 79zM884 1223q0 50 -32 89.5t-81 39.5 t-81 -39.5t-32 -89.5q0 -51 31.5 -90.5t81.5 -39.5t81.5 39.5t31.5 90.5zM1513 884q0 96 -37.5 179t-113 137t-173.5 54q-77 0 -149 -35t-127 -94q-48 -159 -48 -268q0 -104 45.5 -157t147.5 -53q53 0 142 19q36 6 53 6q51 0 77.5 -28t26.5 -80q0 -26 -4 -46 q75 68 117.5 165.5t42.5 200.5zM1792 667q0 -111 -33.5 -249.5t-93.5 -204.5q-58 -64 -195 -142.5t-228 -104.5l-4 -1v-114q0 -43 -29.5 -75t-72.5 -32q-56 0 -86 50q-32 -50 -87 -50t-87 50q-30 -50 -86 -50q-55 0 -87 50q-30 -50 -86 -50q-47 0 -75 33.5t-28 81.5 q-90 -68 -198 -68q-118 0 -211 80q54 1 106 20q-113 31 -182 127q32 -7 71 -7q89 0 164 46q-192 192 -240 306q-24 56 -24 160q0 57 9 125.5t31.5 146.5t55 141t86.5 105t120 42q59 0 81 -52q19 29 42 54q2 3 12 13t13 16q10 15 23 38t25 42t28 39q87 111 211.5 177 t260.5 66q35 0 62 -4q59 64 146 64q83 0 140 -57q5 -5 5 -12q0 -5 -6 -13.5t-12.5 -16t-16 -17l-10.5 -10.5q17 -6 36 -18t19 -24q0 -6 -16 -25q157 -138 197 -378q25 30 60 30q45 0 100 -49q90 -80 90 -279z" />
<glyph unicode="&#xf2b3;" d="M917 631q0 33 -6 64h-362v-132h217q-12 -76 -74.5 -120.5t-142.5 -44.5q-99 0 -169 71.5t-70 170.5t70 170.5t169 71.5q93 0 153 -59l104 101q-108 100 -257 100q-160 0 -272 -112.5t-112 -271.5t112 -271.5t272 -112.5q165 0 266.5 105t101.5 270zM1262 585h109v110 h-109v110h-110v-110h-110v-110h110v-110h110v110zM1536 640q0 -209 -103 -385.5t-279.5 -279.5t-385.5 -103t-385.5 103t-279.5 279.5t-103 385.5t103 385.5t279.5 279.5t385.5 103t385.5 -103t279.5 -279.5t103 -385.5z" />
<glyph unicode="&#xf2b4;" d="M1536 1024v-839q0 -48 -49 -62q-174 -52 -338 -52q-73 0 -215.5 29.5t-227.5 29.5q-164 0 -370 -48v-338h-160v1368q-63 25 -101 81t-38 124q0 91 64 155t155 64t155 -64t64 -155q0 -68 -38 -124t-101 -81v-68q190 44 343 44q99 0 198 -15q14 -2 111.5 -22.5t149.5 -20.5 q77 0 165 18q11 2 80 21t89 19q26 0 45 -19t19 -45z" />
<glyph unicode="&#xf2b5;" horiz-adv-x="1792" />
<glyph unicode="&#xf2b6;" horiz-adv-x="1792" />
<glyph unicode="&#xf2b7;" horiz-adv-x="1792" />
<glyph unicode="&#xf2b8;" horiz-adv-x="1792" />
<glyph unicode="&#xf2b9;" horiz-adv-x="1792" />
<glyph unicode="&#xf2ba;" horiz-adv-x="1792" />
<glyph unicode="&#xf2bb;" horiz-adv-x="1792" />
<glyph unicode="&#xf2bc;" horiz-adv-x="1792" />
<glyph unicode="&#xf2bd;" horiz-adv-x="1792" />
<glyph unicode="&#xf2be;" horiz-adv-x="1792" />
<glyph unicode="&#xf500;" horiz-adv-x="1792" />
</font>
</defs>
</svg>
